Torrent Search | Torrent Meta Search | Widgets

In The Vip xXx Ash Hollywood

       
585.66 Mb
found 4 years ago
▲ seeders: 0 ▼ leechers:1
your vote:
real:
fake:
download torrent

In The Vip xXx Ash Hollywood torrent

Information about the torrent In The Vip xXx Ash Hollywood. Seeders, leechers and torrent status is updated several times per day.

If you want to download the adult torrent In The Vip xXx Ash Hollywood you will need a torrent client.

Torrent Metasearch.

.

tracker
seeders
leechers
↓ torrent client compatible list

↑ hide torrent client compatible list

comments/reviews
140
torrent contents

In The Vip xXx Ash Hollywood(www.mastitorrents.com) torrent

In The Vip xXx Ash Hollywood(www.mastitorrents.com)
In The Vip xXx Ash Hollywood(www.mastitorrents.com).mp4585.66 Mb torrent search
www.mastitorrents.com.nfo310 bytes torrent search

Sample info:
Duration: 00:53:10.52, start: 0.000000, bitrate: 1539 kb/s
Stream #0.0	: Video: h264, yuv420p, 768x432, 29.97 tb(r)
Stream #0.1	: Audio: libfaad, 32000 Hz, stereo
screenshots
In The Vip xXx torrent screenshot 1EB94622A833E9C86C33F6708389947A0EBEADB3 In The Vip xXx  torrent screenshot 1eb94622a833e9c86c33f6708389947a0ebeadb3 torrent In The Vip xXx
Images are auto generated please report any inapropriate images
you may be interested in these torrents seeders leechers size found
The Best Bodies In XXX 3 NEW (2015) New Sensations Split Scenes WEB DL   3        1932 1103 3.78 Gb 1 month ago

Abby Cross.mp4 Annika Albrite.mp4 Augu


What We Do In The Shadows (2014) HDRip x264 COX        621 21 604.33 Mb 7 months ago

Torrent Downloaded From ExtraTorrent.cc.txt What.We.Do.In.The.Shadows.2014.HDRip.x264-C


Fucking Around In NYC NEW (2015) James Deen Split Scenes WEB DL 488 932 4.67 Gb 1 day ago

adrianna nicole.mp4 diana colton.mp4 dolly.


Shameless US Season 5 COMPLETE 720p HDTV x264 MKV AC3 5 1 Ehhhh    307 153 6.23 Gb 3 months ago

About The Show.txt Episode Guide.txt Shameless (US)


MyDirtyHobby Toni Morena Pack 16 Videos     273 273 2.25 Gb 2 days ago

Toni-Morena - 100 Prozent Privat.flv Toni-Morena - Bitte nicht schon wieder


BangBros PublicBang Franceska Jaimes Anal Sex In The Airport Garage With Franceska Jaimes pb14375 June 13 (2015) APT1        244 20 359.75 Mb 24 days ago

[BangBros] - PublicBang - Franceska Jaimes - Anal Sex In The Airport Garage With Franceska Jaimes - pb14375 - [June 13, 2015 - APT].mp4


Big Tits In Uniform 14 NEW (2015) Brazzers Split Scenes WEB DL        194 42 1.64 Gb 1 month ago

Alektra Blue.mp4 Aletta Ocean.mp4 Ava Addams.m


TheIndianPorn Hot Indian Girls Show Off Hardcore Sextapes NEW (2015) Update x37 Clips1    173 167 2.72 Gb 11 days ago

assami_bhabhi_pussy_massage_and_bj.avi c


Tokyo Hunter Nat Uncensored Thai Celebrity in hardcore porn        167 20 924.77 Mb 2 months ago

Tokyo Hunter Vol.19 - Nat_TAD 5519.mp4 Torrent Downloa


Stunning 19yo Mega Cute Russian Sex Goddess With Big Tits In Homemade Anal   1        163 27 317.52 Mb 4 months ago

anal_domashnee.mp4 goddess 1.jpg goddess


 

related search cloud

 mastitorrents  hollywood