Torrent Search | Torrent Meta Search | Widgets

In The Vip xXx Ash Hollywood

       
585.66 Mb
found 4 years ago
▲ seeders: 0 ▼ leechers:1
your vote:
real:
fake:
download torrent

In The Vip xXx Ash Hollywood torrent

Information about the torrent In The Vip xXx Ash Hollywood. Seeders, leechers and torrent status is updated several times per day.

If you want to download the adult torrent In The Vip xXx Ash Hollywood you will need a torrent client.

Torrent Metasearch.

.

tracker
seeders
leechers
↓ torrent client compatible list

↑ hide torrent client compatible list

comments/reviews
140
torrent contents

In The Vip xXx Ash Hollywood(www.mastitorrents.com) torrent

In The Vip xXx Ash Hollywood(www.mastitorrents.com)
In The Vip xXx Ash Hollywood(www.mastitorrents.com).mp4585.66 Mb torrent search
www.mastitorrents.com.nfo310 bytes torrent search

Sample info:
Duration: 00:53:10.52, start: 0.000000, bitrate: 1539 kb/s
Stream #0.0	: Video: h264, yuv420p, 768x432, 29.97 tb(r)
Stream #0.1	: Audio: libfaad, 32000 Hz, stereo
screenshots
In The Vip xXx torrent screenshot 1EB94622A833E9C86C33F6708389947A0EBEADB3 In The Vip xXx  torrent screenshot 1eb94622a833e9c86c33f6708389947a0ebeadb3 torrent In The Vip xXx
Images are auto generated please report any inapropriate images
you may be interested in these torrents seeders leechers size found
What We Do In The Shadows (2014) HDRip x264 COX         496 5 604.33 Mb 6 months ago

Torrent Downloaded From ExtraTorrent.cc.txt What.We.Do.In.The.Shadows.2014.HDRip.x264-C


Shameless US Season 5 COMPLETE 720p HDTV x264 MKV AC3 5 1 Ehhhh     277 166 6.23 Gb 2 months ago

About The Show.txt Episode Guide.txt Shameless (US)


Tokyo Hunter Nat Uncensored Thai Celebrity in hardcore porn         229 34 924.77 Mb 29 days ago

Tokyo Hunter Vol.19 - Nat_TAD 5519.mp4 Torrent Downloa


Cum In Me XXX DVDRip x264 Pr0nStarS 225 224 997.11 Mb 6 days ago

1.jpg cum.in.me.xxx.dvdrip.x264-pr0nstars.nfo front.jpg ps-cime.mp4 0s


Stunning 19yo Mega Cute Russian Sex Goddess With Big Tits In Homemade Anal    1        187 35 317.52 Mb 3 months ago

anal_domashnee.mp4 goddess 1.jpg goddess


PublicAgent E297 Student with big tits fucked in a park NEW 25 May 2015     152 63 559.75 Mb 1 day ago

PublicAgent-Student with big tits fucked in a park.mp4 0


X Art (2015) XXX PACK PornLeech     149 819 85.35 Gb 4 months ago

Connie - lovers in paradise.avi Julie - X-Art (Enjoy The Ride).mp4 Kate (aka Foxy



FakeAgentUK Amateur Tries Anal In Porn Casting 1173 **NEW** 24 May 2015 139 66 770.27 Mb 3 days ago

fauk1173_amateur_tries_anal_in_porn_casting_sd.mp4


LegalPorno Arwen Gold Lita Phoenix Gapefart In My Mouth Epic Interracial Anal 4some RS090 720p     129 129 3.12 Gb 3 days ago

Arwen_Gold_Lita_Phoenix_gapefart_in_m


 

related search cloud

 mastitorrents  hollywood