Torrent Search | Torrent Meta Search | Widgets

Szybcy i Wściekli

7.77 Gb
found 4 years ago
▲ seeders: 1 ▼ leechers:8
your vote:
real:
fake:
download torrent

Szybcy i Wściekli torrent

Information about the torrent Szybcy i Wściekli. Seeders, leechers and torrent status is updated several times per day.

If you want to download the video torrent Szybcy i Wściekli you will need a torrent client.

Torrent Metasearch.

tracker
seeders
leechers
↓ torrent client compatible list

↑ hide torrent client compatible list

comments/reviews
140
torrent contents

Szybcy i Wściekli torrent

Szybcy i Wściekli
Szybcy i Wściekli Tokio Drift.avi2.52 Gb torrent search
Szybcy i Wściekli.avi2.54 Gb torrent search
Za Szybcy Za Wściekli.avi2.71 Gb torrent search

Sample info:
Duration: 01:43:16.64, start: 0.000000, bitrate: 3761 kb/s
Stream #0.0: Video: mpeg4, yuv420p, 1280x544 [PAR 1:1 DAR 40:17], 25.00 tb(r)
Stream #0.1: Audio: mp3, 44100 Hz, stereo, 256 kb/s
you may be interested in these torrents seeders leechers size found
ZODIAC TORRENT PL Fast and Furious7 (2015) LQ HDRip XviD MX NAPISY PL marcinc33 78 6 696.71 Mb 20 days ago

Szybcy i wściekli 7 [2015] PLSUBBED.LQ.BLURRED.HDRiP.


FileTracker pl Szybcy i wściekli 7 Fast and Furious 7 (2015) TS XviD AC3 TRiKO Napisy PL 68 2 1001.24 Mb 2 months ago

Największy wybór TORRENTÓW w sieci.url


szybcy i wściekli 7 48 0 888.07 Mb 1 month ago

szybcy i wściekli 7.mp4


Szybcy i wściekli 6 2013 41 2 696.73 Mb 2 years ago

Szybcy.i.wsciekli.6.2013.PL.THEATRiCAL.BDRip.XviD-BiDA.avi PRZECZYTAJ!!! CIEKAWE CO ZROBISZtxt.


ZODIAC TORRENT PL Fast and Furious 7 (2015) HC HDRip XviD MX ENG NAPISY PL marcinc33 40 4 1.41 Gb 20 days ago

Szybcy i wściekli 7 [2015] PLSUBBED.BLURRED.


Szybcy i wściekli Tokio Drift 2006 miniHD PL Leon 345     26 3 1.83 Gb 1 year ago

Szybcy.i.wściekli.Tokio.Drift_2006_miniHD(Leon 345).mp4


Szybcy i Wściekli 2001 miniHD Leon 345     23 3 1.83 Gb 1 year ago

Szybcy.i.Wściekli.2001_miniHD(Leon 345).mp4 big_1_1105c965e0e0.


Za Szybcy Za Wściekli 2003 miniHD PL Leon 345     21 2 1.8 Gb 1 year ago

Za.Szybcy.Za.Wściekli_2003_miniHD(Leon 345).mp4 big_1_d9


Szybcy i Wściekli 5 PL 2011 miniHD Leon 345    1    17 4 2.05 Gb 1 year ago

Szybcy.i.Wściekli.5.PL_2011_miniHD(Leon 345).mp4 szybcy-i-


Szybcy i wściekli 6 Fast and Furious 6 (2013) DVDRip XviD AC3 5 1 Lektor PL     17 4 1.66 Gb 2 years ago

Szybcy i wściekli 6 - Fast and Furious 6 (2013).avi


 

related search cloud

 szybcy  ciekli  drift  tokio