Torrent Search | Torrent Meta Search | Widgets

Czechav Czech Casting sandra 720p

       
226.51 Mb
found 2 years ago
▲ seeders: 0 ▼ leechers:3
your vote:
real:
fake:
download torrent

Czechav Czech Casting sandra 720p torrent

Information about the torrent Czechav Czech Casting sandra 720p. Seeders, leechers and torrent status is updated everyday.

If you want to download the hdrip torrent Czechav Czech Casting sandra 720p you will need a torrent client.

Torrent Metasearch.

.

tracker
seeders
leechers
↓ torrent client compatible list

↑ hide torrent client compatible list

comments/reviews
140
torrent contents

Czechav - Czech Casting - sandra [720p].mp4 torrent

Czechav - Czech Casting - sandra [720p].mp4226.51 Mb torrent search

Sample info:
Duration: 00:23:24.72, start: 0.000000, bitrate: 1352 kb/s
Stream #0:0	: Video: h264 (High) (avc1 / 0x31637661), yuv420p, 1280x720 [SAR 1:1 DAR 16:9], 1218 kb/s, 25 fps, 25 tbr, 25 tbn, 50 tbc
handler_name	: VideoHandler
Stream #0:1	: Audio: aac (mp4a / 0x6134706D), 48000 Hz, stereo, s16, 127 kb/s
handler_name	: SoundHandler
screenshots
Czechav Czech Casting sandra torrent screenshot 239D9097A086CF81CD0186015231570D8A9AC5E4 Czechav Czech Casting sandra  torrent screenshot 239d9097a086cf81cd0186015231570d8a9ac5e4 torrent Czechav Czech Casting sandra
Images are auto generated please report any inapropriate images
 

related search cloud

 sandra  casting  czech  czechav