Torrent Search | Torrent Meta Search | Widgets

Fist Anal Hors Limites 2

615.51 Mb
found 6 years ago
▲ seeders: 1 ▼ leechers:1
your vote:
real:
fake:
download torrent

Fist Anal Hors Limites 2 torrent

Information about the torrent Fist Anal Hors Limites 2. A torrent file stores metadata that can be used from a BitTorrent client.

If you want to download the anal torrent Fist Anal Hors Limites 2 you will need a torrent client.

Torrent Metasearch.

tracker
seeders
leechers
↓ torrent client compatible list

↑ hide torrent client compatible list

comments/reviews
140
torrent contents

Fist Anal Hors Limites 2.avi torrent

Fist Anal Hors Limites 2.avi615.51 Mb torrent search

Sample info:
Duration: 01:26:11.00, start: 0.000000, bitrate: 998 kb/s
Stream #0.0: Video: mpeg4, yuv420p, 720x480 [PAR 1:1 DAR 3:2], 29.97 tb(r)
Stream #0.1: Audio: mp3, 44100 Hz, stereo, 192 kb/s
screenshots
Images are auto generated please report any inapropriate images
 

related search cloud

 limites  hors  anal  fist