Torrent Search | Torrent Meta Search | Widgets

Smurfs

       
35.26 Gb
found 5 years ago
▲ seeders: 8 ▼ leechers:15
your vote:
real:
fake:
download torrent

Smurfs torrent

Information about the torrent Smurfs. Seeders, leechers and torrent status is updated everyday.

If you want to download the tv torrent Smurfs you will need a torrent client.

Torrent Metasearch.

.

tracker
seeders
leechers
↓ torrent client compatible list

↑ hide torrent client compatible list

comments/reviews
140
torrent contents

Smurfs torrent

Smurfs
 Movie
Smurfs - The Magic Flute Movie.avi647.38 Mb torrent search

Smurfs
 SEASON 1
Smurfs - 1x01 - the astro smurf.avi167.58 Mb torrent search
Smurfs - 1x22 - Painter & Poet.avi140.14 Mb torrent search
Smurfs - 1x25 - The Fountain of Smurf.avi140.14 Mb torrent search
Smurfs - 1x19 - Sir Hefty.avi140.13 Mb torrent search
Smurfs - 1x04 - St Smurf & The Dragon.avi140.11 Mb torrent search
Smurfs - 1x10 - Soup A La Smurf.avi140.1 Mb torrent search
Smurfs - 1x38 - Smurfette's Dancing Shoes.avi140.1 Mb torrent search
Smurfs - 1x16 - Sideshow Smurfs.avi140.09 Mb torrent search
Smurfs - 1x31 - The Smurfette.avi140.08 Mb torrent search
Smurfs - 1x13 - Romeo and Smurfette.avi140.08 Mb torrent search
Smurfs - 1x07 - Bewitched, Bothered and Be-Smurfed.avi140.06 Mb torrent search
Smurfs - 1x09 - The Smurfs And The Howlibird.avi140.05 Mb torrent search
Smurfs - 1x36 - The Clockwork Smurf.avi140.02 Mb torrent search
Smurfs - 1x14 - The Magic Egg.avi90.64 Mb torrent search
Smurfs - 1x27 - Foul Weather Smurf.avi90.52 Mb torrent search
Smurfs - 1x11 - All That Glitters Isn't Smurf.avi70.1 Mb torrent search
Smurfs - 1x32 - Now You Smurf 'Em, Now You Don't.avi70.02 Mb torrent search
Smurfs - 1x02 - Jokey's Medicine.avi70.01 Mb torrent search
Smurfs - 1x30 - Gargamel The Generous.avi70 Mb torrent search
Smurfs - 1x39 - The Smurfs and the Money Tree.avi69.97 Mb torrent search
Smurfs - 1x35 - Smurf-Colored Glasses.avi69.97 Mb torrent search
Smurfs - 1x33 - Spelunking Smurfs.avi69.96 Mb torrent search
Smurfs - 1x18 - Paradise Smurfed.avi69.96 Mb torrent search
Smurfs - 1x15 - Smurphony in C.avi69.95 Mb torrent search
Smurfs - 1x34 - The Smurf's Apprentice.avi69.94 Mb torrent search
Smurfs - 1x12 - Dreamy's Nightmare.avi69.94 Mb torrent search
Smurfs - 1x08 - King Smurf.avi69.93 Mb torrent search
Smurfs - 1x03 - Vanity Fare.avi69.9 Mb torrent search
Smurfs - 1x37 - Fuzzle Trouble.avi69.87 Mb torrent search
Smurfs - 1x28 - The Hundredth Smurf.avi69.84 Mb torrent search
Smurfs - 1x21 - The Fake Smurf.avi51.08 Mb torrent search
Smurfs - 1x26 - The Magnifying Mixture.avi50.2 Mb torrent search
Smurfs - 1x17 - Supersmurf.avi48.86 Mb torrent search
Smurfs - 1x24 - The Purple Smurf.avi48.66 Mb torrent search
Smurfs - 1x05 - The Magical Meanie.avi47.8 Mb torrent search
Smurfs - 1x23 - Haunted Smurfs.avi47.29 Mb torrent search
Smurfs - 1x20 - The Baby Smurf.avi46.76 Mb torrent search
Smurfs - 1x29 - (029) Abominable Snowbeast.avi45.78 Mb torrent search
Smurfs - 1x06 - sorceror smurf.avi34.01 Mb torrent search

Smurfs
 SEASON 2
Smurfs - 2x29 - The Ring Of Castellac.avi176.17 Mb torrent search
Smurfs - 2x36 - the prince and the peewit.avi175.88 Mb torrent search
Smurfs - 2x28 - The Raven Wizard.avi175.65 Mb torrent search
Smurfs - 2x24 - Smurfs at Sea.avi175.4 Mb torrent search
Smurfs - 2x11 - The Sorcery Of Maltrochu.avi175.4 Mb torrent search
Smurfs - 2x17 - Johan's Army.avi173.74 Mb torrent search
Smurfs - 2x14 - The Goblin Of Boulder Wood.avi173.37 Mb torrent search
Smurfs - 2x37 - the enchanted baby.avi170.81 Mb torrent search
Smurfs - 2x06 - The Black Hellebore.avi140.29 Mb torrent search
Smurfs - 2x32 - return of the clockwork smurf.avi140.27 Mb torrent search
Smurfs - 2x19 - the magic fountain.avi140.22 Mb torrent search
Smurfs - 2x08 - the three smurfketeers.avi140.19 Mb torrent search

Sample info:
Duration: 01:14:33.20, start: 0.000000, bitrate: 1214 kb/s
Stream #0.0: Video: mpeg4, yuv420p, 304x232, 29.97 fps, 29.97 tbr, 29.97 tbn, 30k tbc
Stream #0.1: Audio: mp3, 22050 Hz, 2 channels, s16, 55 kb/s
screenshots
Images are auto generated please report any inapropriate images
 

related search cloud

 smurfs  smurf  smurfette  magic  baby  smurfed  fountain  clockwork  movie  season