Torrent Search | Torrent Meta Search | Widgets


491.12 Mb
found 4 years ago
▲ seeders: 1 ▼ leechers:1
your vote:
download torrent

CZECH STREETS 50 torrent

Information about the torrent CZECH STREETS 50. Seeders, leechers and torrent status is updated several times per day.

If you want to download the video torrent CZECH STREETS 50 you will need a torrent client.

Torrent Metasearch.

Torrent verified by

No trackers with seeders or leechers have been found, this doesn't mean that the torrent CZECH STREETS 50 is dead
torrent contents

CZECH STREETS 50.wmv torrent

CZECH STREETS 50.wmv491.12 Mb torrent search

Sample info:
Duration: 00:21:38.80, start: 3.100000, bitrate: 3172 kb/s
Stream #0.0: Video: wmv2, yuv420p, 720x576, 25 tbr, 1k tbn, 1k tbc
Stream #0.1: Audio: wmav2, 48000 Hz, 2 channels, s16, 128 kb/s
CZECH STREETS 50 torrent screenshot 2870755D183FDBEA3B564D4E5FC23275B1130E5F CZECH STREETS 50 torrent screenshot 2870755d183fdbea3b564d4e5fc23275b1130e5f torrent CZECH STREETS 50
Images are auto generated please report any inapropriate images

related search cloud

 streets  czech