Torrent Search | Torrent Meta Search | Widgets

CZECH STREETS 50

       
491.12 Mb
found 5 years ago
▲ seeders: 0 ▼ leechers:1
your vote:
real:
fake:
download torrent

CZECH STREETS 50 torrent

Information about the torrent CZECH STREETS 50. Seeders, leechers and torrent status is updated several times per day.

If you want to download the video torrent CZECH STREETS 50 you will need a torrent client.

Torrent Metasearch.

Torrent verified by kat.ph.

No trackers with seeders or leechers have been found, this doesn't mean that the torrent CZECH STREETS 50 is dead
comments/reviews
140
torrent contents

CZECH STREETS 50.wmv torrent

CZECH STREETS 50.wmv491.12 Mb torrent search

Sample info:
Duration: 00:21:38.80, start: 3.100000, bitrate: 3172 kb/s
Stream #0.0: Video: wmv2, yuv420p, 720x576, 25 tbr, 1k tbn, 1k tbc
Stream #0.1: Audio: wmav2, 48000 Hz, 2 channels, s16, 128 kb/s
screenshots
Images are auto generated please report any inapropriate images
 

related search cloud

 streets  czech