Torrent Search | Torrent Meta Search | Widgets

Lily Carter Is Irresistible

       
1.35 Gb
found 4 years ago
▲ seeders: 2 ▼ leechers:2
your vote:
real:
fake:
download torrent

Lily Carter Is Irresistible torrent

Information about the torrent Lily Carter Is Irresistible. Seeders, leechers and torrent status is updated everyday.

If you want to download the video torrent Lily Carter Is Irresistible you will need a torrent client.

Torrent Metasearch.

.

tracker
seeders
leechers
↓ torrent client compatible list

↑ hide torrent client compatible list

comments/reviews
140
torrent contents

Lily.Carter.Is.Irresistible torrent

Lily.Carter.Is.Irresistible
jiggly-lilycarter-cd2.avi695.95 Mb torrent search
jiggly-lilycarter-cd1.avi688.9 Mb torrent search

Sample info:
Duration: 01:20:30.66, start: 0.000000, bitrate: 1208 kb/s
Stream #0.0: Video: mpeg4 (Simple Profile), yuv420p, 640x352 [PAR 1:1 DAR 20:11], 23.98 tbr, 23.98 tbn, 23.98 tbc
Stream #0.1: Audio: mp3, 48000 Hz, stereo, s16, 118 kb/s
screenshots
Images are auto generated please report any inapropriate images
 

related search cloud

 lilycarter  jiggly  carter  lily