Torrent Search | Torrent Meta Search | Widgets

C700 Sex Horse

487.91 Mb
found 6 years ago
▲ seeders: 0 ▼ leechers:2
your vote:
real:
fake:
download torrent

C700 Sex Horse torrent

Information about the torrent C700 Sex Horse. Seeders, leechers and torrent status is updated everyday.

If you want to download the video torrent C700 Sex Horse you will need a torrent client.

Torrent Metasearch.

comments/reviews
anonymous 27 Dec 2014, 02:12:47
Sexhorse
anonymous 28 Jul 2014, 12:07:00
Video
140
torrent contents

C700 Sex Horse.mpg torrent

C700 Sex Horse.mpg487.91 Mb torrent search

Sample info:
Duration: 00:42:05.80, start: 0.535722, bitrate: 1620 kb/s
Stream #0.0[0x1e0]: Video: mpeg1video, yuv420p, 320x256 [PAR 1:1 DAR 5:4], 1500 kb/s, 25 fps, 25 tbr, 90k tbn, 25 tbc
Stream #0.1[0x1c0]: Audio: mp2, 32000 Hz, 2 channels, s16, 96 kb/s
screenshots
Images are auto generated please report any inapropriate images
 

related search cloud

 horse