Torrent Search | Torrent Meta Search | Widgets

Sara Jay Johnny Castle MyFriendsHotMom 10 17 (2011)

       
426.97 Mb
found 5 years ago
▲ seeders: 3 ▼ leechers:2
your vote:
real:
fake:
download torrent

Sara Jay Johnny Castle MyFriendsHotMom 10 17 (2011) torrent

Information about the torrent Sara Jay Johnny Castle MyFriendsHotMom 10 17 (2011). Seeders, leechers and torrent status is updated everyday.

If you want to download the adult torrent Sara Jay Johnny Castle MyFriendsHotMom 10 17 (2011) you will need a torrent client.

Torrent Metasearch.

Torrent verified by kat.ph.

tracker
seeders
leechers
↓ torrent client compatible list

↑ hide torrent client compatible list

comments/reviews
140
torrent contents

Sara.Jay.Johnny.Castle.MyFriendsHotMom.10.17.2011.wmv torrent

Sara.Jay.Johnny.Castle.MyFriendsHotMom.10.17.2011.wmv426.97 Mb torrent search

Sample info:
Duration: 00:28:23.25, start: 5.000000, bitrate: 2102 kb/s
Stream #0.0(eng): Audio: wmav2, 48000 Hz, 2 channels, s16, 96 kb/s
Stream #0.1(eng): Video: wmv3, yuv420p, 850x480, 2000 kb/s, 23.98 tbr, 1k tbn, 1k tbc
screenshots
Images are auto generated please report any inapropriate images
 

related search cloud

 myfriendshotmom  castle  johnny  sara