Torrent Search | Torrent Meta Search | Widgets

PervsOnPatrol Balcony Banging Megan Salinas

897.55 Mb
found 3 years ago
▲ seeders: 0 ▼ leechers:1
your vote:
real:
fake:
download torrent

PervsOnPatrol Balcony Banging Megan Salinas torrent

Information about the torrent PervsOnPatrol Balcony Banging Megan Salinas. A torrent file stores metadata that can be used from a BitTorrent client.

If you want to download the adult torrent PervsOnPatrol Balcony Banging Megan Salinas you will need a torrent client.

Torrent Metasearch.

No trackers with seeders or leechers have been found, this doesn't mean that the torrent PervsOnPatrol Balcony Banging Megan Salinas is dead
comments/reviews
140
torrent contents

PervsOnPatrol - Balcony Banging - Megan-Salinas torrent

PervsOnPatrol - Balcony Banging - Megan-Salinas
RARBG.com.txt34 bytes torrent search
PervsOnPatrol - Balcony Banging - Megan Salinas.wmv897.55 Mb torrent search

Sample info:
Duration: 00:45:15.86, start: 0.000000, bitrate: 2772 kb/s
Stream #0:0: Video: wmv2 (WMV2 / 0x32564D57), yuv420p, 854x480, 29.97 tbr, 1k tbn, 1k tbc
Stream #0:1: Audio: wmav2 (a[1][0][0] / 0x0161), 48000 Hz, stereo, s16, 128 kb/s
screenshots
Images are auto generated please report any inapropriate images
 

related search cloud

 salinas  megan  banging  pervsonpatrol  balcony  rarbg