Torrent Search | Torrent Meta Search | Widgets

torrent

       
315.76 Mb
found 5 years ago
▲ seeders: 0 ▼ leechers:1
your vote:
real:
fake:
download torrent

torrent torrent

Information about the torrent torrent. Seeders, leechers and torrent status is updated several times per day.

If you want to download the video torrent torrent you will need a torrent client.

Torrent Metasearch.

Torrent verified by kat.ph.

tracker
seeders
leechers
↓ torrent client compatible list

↑ hide torrent client compatible list

comments/reviews
140
torrent contents

Cassie_Cruz_Jumping_Rope_Makes_Me_Bounce.wmv torrent

Cassie_Cruz_Jumping_Rope_Makes_Me_Bounce.wmv315.76 Mb torrent search

Sample info:
Duration: 00:18:22.33, start: 3.100000, bitrate: 2402 kb/s
Stream #0.0: Video: wmv2, yuv420p, 768x432, 29.92 tb(r)
Stream #0.1: Audio: wmav2, 48000 Hz, stereo, 64 kb/s
screenshots
Images are auto generated please report any inapropriate images
 

related search cloud

 makes  bounce  rope  jumping  cruz  caie