Torrent Search | Torrent Meta Search | Widgets

My Friends Hot Mom Victoria Givens

       
146.37 Mb
found 4 years ago
▲ seeders: 0 ▼ leechers:1
your vote:
real:
fake:
download torrent

My Friends Hot Mom Victoria Givens torrent

Information about the torrent My Friends Hot Mom Victoria Givens. Seeders, leechers and torrent status is updated several times per day.

If you want to download the video torrent My Friends Hot Mom Victoria Givens you will need a torrent client.

Torrent Metasearch.

.

No trackers with seeders or leechers have been found, this doesn't mean that the torrent My Friends Hot Mom Victoria Givens is dead
comments/reviews
140
torrent contents

My.Friends.Hot.Mom.-.Victoria.Givens torrent

My.Friends.Hot.Mom.-.Victoria.Givens
My.Friends.Hot.Mom.-.Victoria.Givens.wmv145.81 Mb torrent search
SCREENS1 My.Friends.Hot.Mom.-.Victoria.Givens.jpg451.81 Kb torrent search
POSTER1 My.Friends.Hot.Mom.-.Victoria.Givens.jpg122 Kb torrent search
nfo.nfo81 bytes torrent search

Sample info:
Duration: 00:43:32.64, start: 0.000000, bitrate: 468 kb/s
Stream #0.0(eng): Audio: wmav2, 44100 Hz, 2 channels, s16, 64 kb/s
Stream #0.1(eng): Video: wmv3 (Main), yuv420p, 480x360, 400 kb/s, 29.97 tbr, 1k tbn, 1k tbc
screenshots
My Friends Hot Mom torrent screenshot 455EE1E244D4C076FD95C3EEFF7128C203ABA096 My Friends Hot Mom  torrent screenshot 455ee1e244d4c076fd95c3eeff7128c203aba096 torrent My Friends Hot Mom
Images are auto generated please report any inapropriate images
 

related search cloud

 victoria  friends  givens  poster  screens