Torrent Search | Torrent Meta Search | Widgets

Sexy Indian Desi Clips XX Majaa

       
323.07 Mb
found 5 years ago
▲ seeders: 0 ▼ leechers:1
your vote:
real:
fake:
download torrent

Sexy Indian Desi Clips XX Majaa torrent

Information about the torrent Sexy Indian Desi Clips XX Majaa. Seeders, leechers and torrent status is updated everyday.

If you want to download the video torrent Sexy Indian Desi Clips XX Majaa you will need a torrent client.

Torrent Metasearch.

.

tracker
seeders
leechers
↓ torrent client compatible list

↑ hide torrent client compatible list

comments/reviews
anonymous 22 Jun 2015, 05:06:32
seeeeeeeeeeeeeeds
anonymous 07 May 2015, 10:05:51
Hanimuncuple
140
torrent contents

Sexy Indian Desi Clips.XX.Majaa torrent

Sexy Indian Desi Clips.XX.Majaa
2010_06_14_06-indian-sex.wmv43.99 Mb torrent search
2010_06_03_01-indian-sex.wmv26.32 Mb torrent search
honeymoon_couple.avi26.16 Mb torrent search
honeymoon_couple_sextape.wmv24.37 Mb torrent search
Tamil_Sex_112210_1.avi21.29 Mb torrent search
2010_11_15_08-indian-sex.wmv21.15 Mb torrent search
6750968350.avi20.11 Mb torrent search
cyberhyderabadgirl4.wmv17.98 Mb torrent search
hot_desi_couple.avi16.86 Mb torrent search
mallu_aunty_in_saree.wmv13.98 Mb torrent search
IYUHIUH-358745.wmv13.02 Mb torrent search
3013911522.avi12.21 Mb torrent search
4864167964.avi10.26 Mb torrent search
professor with student toilet scandal.wmv9.25 Mb torrent search
BDESS.wmv7.95 Mb torrent search
2010_05_24_02-indian-sex.wmv7.4 Mb torrent search
GEENJ.wmv5.45 Mb torrent search
KDCBF.wmv4.56 Mb torrent search
auditions.avi4.48 Mb torrent search
DHJG (1).wmv4.27 Mb torrent search
Vaya susto 2.wmv3.79 Mb torrent search
6480619356.avi3.76 Mb torrent search
2010_06_18_02-indian-sex.wmv3.19 Mb torrent search
Rekha anti striped by Uncle TeAm-TDK.3gp1.26 Mb torrent search

Sample info:
Duration: 00:19:21.04, start: 0.000000, bitrate: 317 kb/s
Stream #0.0(eng): Audio: wmav2, 44100 Hz, 2 channels, s16, 48 kb/s
Stream #0.1(eng): Video: wmv3 (Main), yuv420p, 320x240, 256 kb/s, PAR 1:1 DAR 4:3, 24 tbr, 1k tbn, 1k tbc
screenshots
Sexy Indian Desi Clips torrent screenshot 4FCC54FF6E35CE677167DBA79EFBD81AAE5EE004 Sexy Indian Desi Clips  torrent screenshot 4fcc54ff6e35ce677167dba79efbd81aae5ee004 torrent Sexy Indian Desi Clips
Images are auto generated please report any inapropriate images
you may be interested in these torrents seeders leechers size found
Sexy Indian Pair Caught in Room        7 0 119.03 Mb 3 months ago

Sexy Indian Pair Caught in Room.mkv


Hot homemade video of Sexy Indian couple mp4        6 1 109.76 Mb 1 year ago

Hot homemade video of Sexy Indian couple.mp4.mp4


Sexy Indian Hidden Cam Indian Desi Indian Cumshots    6 1 106.54 Mb 10 months ago

Sexy Indian Hidden Cam Indian Desi Indian Cumshots.mkv


Sexy Indian Mistress Banged Her BF With Dusty Language     6 1 122.75 Mb 2 months ago

Sexy Indian Mistress Banged Her BF With Dusty Language.mp4


very very beautiful sexy indian kismiri girl parro first time sex in front of camera+hindi audio full video6    5 1 110.09 Mb 3 years ago

very very beautiful sexy indian kismiri girl parro first time sex in front of camera+hindi audio full video.avi


Sexy Indian Models Hottest Bikini Photo Shoot Nipple slip   2        4 2 303.67 Mb 1 year ago

Sexy Indian Models Hottest Bikini Photo Shoot Nipple slip.avi


Sexy Indian In Saree 3 2 119.8 Mb 6 months ago

Sexy Indian In Saree.mp4


Sexy Indian Bhabi Fucked By Neighbor in Missionary Style        3 1 105.59 Mb 6 months ago

Sexy Indian Bhabi Fucked By Neighbor in Missionary Style.mkv


Sexy Indian Teen   1        3 1 218.05 Mb 3 months ago

Sexy Indian Teen.mp4


Seducing sexy Indian bhabhi    3 1 139.51 Mb 1 year ago

Seducing sexy Indian bhabhi.mpg


 

related search cloud

 indian  couple  honeymoon  desi  dhjg  vaya  auditions  kdcbf  susto  geenj