Torrent Search | Torrent Meta Search | Widgets

Anales Casting 16

       
1.09 Gb
found 5 years ago
▲ seeders: 1 ▼ leechers:1
your vote:
real:
fake:
download torrent

Anales Casting 16 torrent

Information about the torrent Anales Casting 16. Seeders, leechers and torrent status is updated several times per day.

If you want to download the video torrent Anales Casting 16 you will need a torrent client.

Torrent Metasearch.

Torrent verified by kat.ph.

tracker
seeders
leechers
↓ torrent client compatible list

↑ hide torrent client compatible list

comments/reviews
140
torrent contents

Anales Casting 16 torrent

Anales Casting 16
Anales Casting 16.avi1.09 Gb torrent search

Sample info:
Duration: 01:16:10.74, start: 0.000000, bitrate: 2057 kb/s
Stream #0.0: Video: mpeg4, yuv420p, 512x384 [PAR 1:1 DAR 4:3], 25 tbr, 25 tbn, 25 tbc
Stream #0.1: Audio: mp3, 44100 Hz, 2 channels, s16, 121 kb/s
screenshots
Images are auto generated please report any inapropriate images
 

related search cloud

 casting  anales