Torrent Search | Torrent Meta Search | Widgets

Homeland S01

       
6.6 Gb
found 5 years ago
▲ seeders: 19 ▼ leechers:9
your vote:
real:
fake:
download torrent

Homeland S01 torrent

Information about the torrent Homeland S01. A torrent file stores metadata that can be used from a BitTorrent client.

If you want to download the tv torrent Homeland S01 you will need a torrent client.

Torrent Metasearch.

Torrent verified by thepiratebay.se.

tracker
seeders
leechers
↓ torrent client compatible list

↑ hide torrent client compatible list

comments/reviews
140
torrent contents

Homeland.S01 torrent

Homeland.S01
1KABLAM!!!-Slogan.avi2.69 Mb torrent search
1KABLAM!!!-SphereXmasTree.avi5.01 Mb torrent search
1KABLAM!!!.txt274 bytes torrent search
Homeland.S01E01.HDTV.XviD-ASAP.[VTV].avi549.89 Mb torrent search
Homeland.S01E02.Grace.HDTV.XviD-FQM.[VTV].avi550.23 Mb torrent search
Homeland.S01E03.HDTV.XviD-ASAP.[VTV].avi549.97 Mb torrent search
Homeland.S01E04.HDTV.XviD-ASAP.[VTV].avi548.62 Mb torrent search
Homeland.S01E05.HDTV.XviD-LOL.[VTV].avi550.06 Mb torrent search
Homeland.S01E06.HDTV.XviD-LOL.avi549.67 Mb torrent search
Homeland.S01E07.HDTV.XviD-FEVER.[VTV].avi549.57 Mb torrent search
Homeland.S01E08.HDTV.XviD-ASAP.avi549.14 Mb torrent search
Homeland.S01E09.HDTV.XviD-LOL.avi549.42 Mb torrent search
Homeland.S01E10.HDTV.XviD-ASAP.[VTV].avi549.83 Mb torrent search
Homeland.S01E11.HDTV.XviD-ASAP.[VTV].avi549.87 Mb torrent search
Homeland.S01E12.HDTV.XviD-LOL.avi699.38 Mb torrent search

Sample info:
Duration: 01:24:27.22, start: 0.000000, bitrate: 1157 kb/s
Stream #0.0: Video: mpeg4, yuv420p, 624x352 [PAR 1:1 DAR 39:22], 23.98 tbr, 23.98 tbn, 23.98 tbc
Stream #0.1: Audio: mp3, 48000 Hz, 2 channels, s16, 128 kb/s
screenshots
Images are auto generated please report any inapropriate images
 

related search cloud

 homeland  xvid  hdtv  asap  kablam  fever  grace  slogan  spherexmastree