Torrent Search | Torrent Meta Search | Widgets

Active Horse Fuck Women

       
127.07 Mb
found 5 years ago
▲ seeders: 0 ▼ leechers:1
your vote:
real:
fake:
download torrent

Active Horse Fuck Women torrent

Information about the torrent Active Horse Fuck Women. Seeders, leechers and torrent status is updated several times per day.

If you want to download the adult torrent Active Horse Fuck Women you will need a torrent client.

Torrent Metasearch.

Torrent verified by torlock.com.

tracker
seeders
leechers
↓ torrent client compatible list

↑ hide torrent client compatible list

comments/reviews
140
torrent contents

Active Horse Fuck Women ( www.rarevideofree.com ) torrent

Active Horse Fuck Women ( www.rarevideofree.com )
Active Horse Fuck Women A.wmv59.82 Mb torrent search
Active Horse Fuck Women G.mpg28.96 Mb torrent search
Active Horse Fuck Women 2.wmv10.47 Mb torrent search
Active Horse Fuck Women 4.wmv8.31 Mb torrent search
Active Horse Fuck Women 5.wmv7.92 Mb torrent search
Active Horse Fuck Women 1.mpg6.28 Mb torrent search
Active Horse Fuck Women 3.wmv5.3 Mb torrent search

Sample info:
Duration: 00:02:41.75, start: 3.000000, bitrate: 3102 kb/s
Stream #0.0(eng): Audio: wmav2, 44100 Hz, 2 channels, s16, 96 kb/s
Stream #0.1(eng): Video: wmv3, yuv420p, 640x480, 3049 kb/s, 30 tbr, 1k tbn, 1k tbc
screenshots
Images are auto generated please report any inapropriate images
 

related search cloud

 women  active  fuck  horse  rarevideofree