Torrent Search | Torrent Meta Search | Widgets

Cocoa Nut Busters

       
1.81 Gb
found 2 years ago
▲ seeders: 7 ▼ leechers:2
your vote:
real:
fake:
download torrent

Cocoa Nut Busters torrent

Information about the torrent Cocoa Nut Busters. Seeders, leechers and torrent status is updated several times per day.

If you want to download the video torrent Cocoa Nut Busters you will need a torrent client.

Torrent Metasearch.

Torrent verified by thepiratebay.se.

tracker
seeders
leechers
↓ torrent client compatible list

↑ hide torrent client compatible list

comments/reviews
140
torrent contents

Cocoa Nut Busters torrent

Cocoa Nut Busters
Cocoa Nut Busters - Disc 1.avi629.21 Mb torrent search
Cocoa Nut Busters - Disc 1.jpg385.04 Kb torrent search
Cocoa Nut Busters - Disc 2.avi469.02 Mb torrent search
Cocoa Nut Busters - Disc 2.jpg399.97 Kb torrent search
Cocoa Nut Busters - Disc 3.avi759.05 Mb torrent search
Cocoa Nut Busters - Disc 3.jpg432.18 Kb torrent search

Sample info:
Duration: 02:23:01.27, start: 0.000000, bitrate: 742 kb/s
Stream #0:0: Video: mpeg4 (Advanced Simple Profile) (XVID / 0x44495658), yuv420p, 600x338 [SAR 1:1 DAR 300:169], 29.97 tbr, 29.97 tbn, 29.97 tbc
Stream #0:1: Audio: mp3 (U[0][0][0] / 0x0055), 24000 Hz, stereo, s16, 32 kb/s
screenshots
Cocoa Nut Busters torrent screenshot 5A8D4C377CBCF81F1D8AAF75862768BAF56E8523 Cocoa Nut Busters torrent screenshot 5a8d4c377cbcf81f1d8aaf75862768baf56e8523 torrent Cocoa Nut Busters
Images are auto generated please report any inapropriate images
 

related search cloud

 cocoa  busters  disc