Torrent Search | Torrent Meta Search | Widgets

Brasileirinhas Pecados & Tentacoes Leila Lopes

114.18 Mb
found 5 years ago
▲ seeders: 4 ▼ leechers:0
your vote:
real:
fake:
download torrent

Brasileirinhas Pecados & Tentacoes Leila Lopes torrent

Information about the torrent Brasileirinhas Pecados & Tentacoes Leila Lopes. Seeders, leechers and torrent status is updated several times per day.

If you want to download the adult torrent Brasileirinhas Pecados & Tentacoes Leila Lopes you will need a torrent client.

Torrent Metasearch.

tracker
seeders
leechers
↓ torrent client compatible list

↑ hide torrent client compatible list

comments/reviews
140
torrent contents

Brasileirinhas - Pecados & Tentacoes - Leila Lopes torrent

Brasileirinhas - Pecados & Tentacoes - Leila Lopes
12073.jpg43.48 Kb torrent search
Brasileirinhas.200806.Pecados.e.Tentacoes.Cena1.Leila.Lopes.XXX.WS.DVDRip.wmv94.52 Mb torrent search
Brasileirinhas.200806.Pecados.e.Tentacoes.Cena3.Leila.Lopes.XXX.WS.DVDRip.wmv19.09 Mb torrent search
Capa.jpg96.65 Kb torrent search
Cena 1.jpg36.47 Kb torrent search
Cena 2.jpg380.54 Kb torrent search
leila-lopes.jpg23.55 Kb torrent search

Sample info:
Duration: 00:22:45.58, start: 5.000000, bitrate: 580 kb/s
Stream #0.0: Video: wmv3, yuv420p, 448x256, 512 kb/s, 29.97 tb(r)
Stream #0.1: Audio: wmav2, 44100 Hz, stereo, 64 kb/s
you may be interested in these torrents seeders leechers size found
Brasileirinhas Cara De Santa XXX WEBRip NEW (2013)     32 11 740.24 Mb 2 years ago

CaraDeSanta_cena4.mp4 CaraDeSanta_cena3.mp4 CaraDeSanta_cena


Anal Mania Marcia Imperator Brasileirinhas Berte UP 21 11 943.59 Mb 5 months ago

AnalMania_cena8.mp4 AnalMania_cena4.mp4


Pacotasso 130 videos pornos 3gp para Celular6    17 4 382.17 Mb 2 years ago

Yasmin Vianna num mnage.3gp Comendo a Morena depois da Balada.3gp J


Festa Anal        14 3 1.37 Gb 5 years ago

12161.jpg Brasileirinhas - Festa Anal.avi thumbs20090101181256.jpg


Carinho Das Indias: Sexy India Brasileirinhas XXX DVDRip     12 5 1.36 Gb 2 months ago

Carinho Das Indias CD1.avi Carinho Das Indias CD2.avi


Bruna Ferraz PACK1   2     12 6 6.83 Gb 2 years ago

Brasileirinhas - Exploração Anal - 01.avi Brasileirinhas - Estrelas em Busca do Prazer.avi


BrasileirinhasMulheres Maduras    11 3 609.21 Mb 4 years ago

Brasileirinhas Anal Com Mulheres Maduras.avi


Brasileirinhas Violação Anal 2 XXX DVDRip     10 5 699.21 Mb 3 months ago

Brasileirinhas Violacao Anal 2.avi


Triplex Anal 3    10 1 798.65 Mb 11 months ago

Brasileirinhas 2006 Triplex Anal 3 DVDRip.avi


Brazil Debutantes em Gramado (2000) Brasileirinhas XXX DVDRip 9 7 537.8 Mb 15 days ago

Debutantes.em.Gramado.mp4 RARBG.com.txt poster.jpg


 

related search cloud

 cena  lopes  leila  brasileirinhas  pecados  tentacoes  dvdrip  capa