Torrent Search | Torrent Meta Search | Widgets

Brasileirinhas Pecados & Tentacoes Leila Lopes

114.18 Mb
found 4 years ago
▲ seeders: 4 ▼ leechers:1
your vote:
real:
fake:
download torrent

Brasileirinhas Pecados & Tentacoes Leila Lopes torrent

Information about the torrent Brasileirinhas Pecados & Tentacoes Leila Lopes. Seeders, leechers and torrent status is updated several times per day.

If you want to download the adult torrent Brasileirinhas Pecados & Tentacoes Leila Lopes you will need a torrent client.

Torrent Metasearch.

tracker
seeders
leechers
↓ torrent client compatible list

↑ hide torrent client compatible list

comments/reviews
140
torrent contents

Brasileirinhas - Pecados & Tentacoes - Leila Lopes torrent

Brasileirinhas - Pecados & Tentacoes - Leila Lopes
12073.jpg43.48 Kb torrent search
Brasileirinhas.200806.Pecados.e.Tentacoes.Cena1.Leila.Lopes.XXX.WS.DVDRip.wmv94.52 Mb torrent search
Brasileirinhas.200806.Pecados.e.Tentacoes.Cena3.Leila.Lopes.XXX.WS.DVDRip.wmv19.09 Mb torrent search
Capa.jpg96.65 Kb torrent search
Cena 1.jpg36.47 Kb torrent search
Cena 2.jpg380.54 Kb torrent search
leila-lopes.jpg23.55 Kb torrent search

Sample info:
Duration: 00:22:45.58, start: 5.000000, bitrate: 580 kb/s
Stream #0.0: Video: wmv3, yuv420p, 448x256, 512 kb/s, 29.97 tb(r)
Stream #0.1: Audio: wmav2, 44100 Hz, stereo, 64 kb/s
you may be interested in these torrents seeders leechers size found
Anal Mania Marcia Imperator Brasileirinhas Berte UP 40 11 943.59 Mb 4 months ago

AnalMania_cena8.mp4 AnalMania_cena4.mp4


Carinho Das Indias: Sexy India Brasileirinhas XXX DVDRip     25 8 1.36 Gb 1 month ago

Carinho Das Indias CD1.avi Carinho Das Indias CD2.avi


Brasileirinhas Cara De Santa XXX WEBRip NEW (2013)     22 16 740.24 Mb 2 years ago

CaraDeSanta_cena4.mp4 CaraDeSanta_cena3.mp4 CaraDeSanta_cena


BrasileirinhasMulheres Maduras     16 3 609.21 Mb 4 years ago

Brasileirinhas Anal Com Mulheres Maduras.avi


Pacotasso 130 videos pornos 3gp para Celular6    16 3 382.17 Mb 2 years ago

Yasmin Vianna num mnage.3gp Comendo a Morena depois da Balada.3gp J


Brasileirinhas Violação Anal 2 XXX DVDRip     13 5 699.21 Mb 2 months ago

Brasileirinhas Violacao Anal 2.avi


Bruna Ferraz PACK1   2     10 5 6.83 Gb 2 years ago

Brasileirinhas - Exploração Anal - 01.avi Brasileirinhas - Estrelas em Busca do Prazer.avi


Brasileirinhas Taras De Um Fotografo XXX DVDRip     9 1 853.89 Mb 2 years ago

Patricia_cena1.mp4 Leona_cena4.mp4 Fabiane_cena2.mp4


Festa Anal         9 2 1.37 Gb 5 years ago

12161.jpg Brasileirinhas - Festa Anal.avi thumbs20090101181256.jpg


Brasileirinhas Último Tango Em Buenos Aires     8 3 1.13 Gb 4 months ago

Brasileirinhas-D P Anal Último Tango Em Buenos Aires CD1.avi Brasileirinhas-D P


 

related search cloud

 cena  lopes  leila  brasileirinhas  pecados  tentacoes  dvdrip  capa