Torrent Search | Torrent Meta Search | Widgets

Polskie Wesele (2002) Klaudia Figura Mayara Claire Brown Midori Kasia Laska Asia Blondi Paula de Vriez Kasia Kruppa

       
625.42 Mb
found 5 years ago
▲ seeders: 0 ▼ leechers:1
your vote:
real:
fake:
download torrent

Polskie Wesele (2002) Klaudia Figura Mayara Claire Brown Midori Kasia Laska Asia Blondi Paula de Vriez Kasia Kruppa torrent

Information about the torrent Polskie Wesele (2002) Klaudia Figura Mayara Claire Brown Midori Kasia Laska Asia Blondi Paula de Vriez Kasia Kruppa. Seeders, leechers and torrent status is updated several times per day.

If you want to download the video torrent Polskie Wesele (2002) Klaudia Figura Mayara Claire Brown Midori Kasia Laska Asia Blondi Paula de Vriez Kasia Kruppa you will need a torrent client.

Torrent Metasearch.

Torrent verified by torlock.com.

No trackers with seeders or leechers have been found, this doesn't mean that the torrent Polskie Wesele (2002) Klaudia Figura Mayara Claire Brown Midori Kasia Laska Asia Blondi Paula de Vriez Kasia Kruppa is dead
comments/reviews
anonymous 21 Dec 2014, 12:12:47
외국아이피 한글사이트 좋은자료많아요 Hot Sexy site >>> spam removed/b/av_torrent_game/123081/mbMTk5ODA0
140
torrent contents

Polskie Wesele (2002) (Klaudia Figura,Mayara,Claire Brown,Midori,Kasia Laska,Asia Blondi,Paula de Vriez,Kasia Kruppa).avi torrent

Polskie Wesele (2002) (Klaudia Figura,Mayara,Claire Brown,Midori,Kasia Laska,Asia Blondi,Paula de Vriez,Kasia Kruppa).avi625.42 Mb torrent search

Sample info:
Duration: 01:12:50.72, start: 0.000000, bitrate: 1200 kb/s
Stream #0.0: Video: mpeg4, yuv420p, 352x288 [PAR 47:44 DAR 47:36], PAR 49152:46013 DAR 16384:12549, 25 tbr, 25 tbn, 25 tbc
Stream #0.1: Audio: mp3, 44100 Hz, 2 channels, s16, 128 kb/s
screenshots
Images are auto generated please report any inapropriate images
 

related search cloud

 kasia  asia  laska  blondi  paula  kruppa  vriez  midori  klaudia  wesele