Torrent Search | Torrent Meta Search | Widgets

Defloration Liza Blueberry

       
507.48 Mb
found 4 years ago
▲ seeders: 0 ▼ leechers:1
your vote:
real:
fake:
download torrent

Defloration Liza Blueberry torrent

Information about the torrent Defloration Liza Blueberry. Seeders, leechers and torrent status is updated everyday.

If you want to download the adult torrent Defloration Liza Blueberry you will need a torrent client.

Torrent Metasearch.

Torrent verified by kat.ph.

tracker
seeders
leechers
comments/reviews
140
torrent contents

Defloration-Liza Blueberry torrent

Defloration-Liza Blueberry
Liza_Blueberry_full.avi507.48 Mb torrent search
Torrent downloaded from rarbg.com.nfo33 bytes torrent search

Sample info:
Duration: 00:40:22.88, start: 0.000000, bitrate: 1757 kb/s
Stream #0.0: Video: mpeg4, yuv420p, 712x400 [PAR 1:1 DAR 89:50], 25 fps, 25 tbr, 25 tbn, 30k tbc
Stream #0.1: Audio: mp3, 48000 Hz, 2 channels, s16, 128 kb/s
screenshots
Images are auto generated please report any inapropriate images
 

related search cloud

 blueberry  liza  rarbg  downloaded  full  defloration  torrent