Torrent Search | Torrent Meta Search | Widgets

ShowStars Aya and Naina Topless

159.3 Mb
found 4 years ago
▲ seeders: 8 ▼ leechers:1
your vote:
real:
fake:
download torrent

ShowStars Aya and Naina Topless torrent

Information about the torrent ShowStars Aya and Naina Topless. Seeders, leechers and torrent status is updated everyday.

If you want to download the video torrent ShowStars Aya and Naina Topless you will need a torrent client.

Torrent Metasearch.

tracker
seeders
leechers
↓ torrent client compatible list

↑ hide torrent client compatible list

comments/reviews
140
torrent contents

ShowStars - Aya and Naina-Topless.avi torrent

ShowStars - Aya and Naina-Topless.avi159.3 Mb torrent search

Sample info:
Duration: 00:15:50.08, start: 0.000000, bitrate: 1406 kb/s
Stream #0.0: Video: mpeg4, yuv420p, 720x576 [PAR 1:1 DAR 5:4], 25.00 tb(r)
Stream #0.1: Audio: mp3, 44100 Hz, stereo, 160 kb/s
you may be interested in these torrents seeders leechers size found
torrent 5 2 112.24 Mb 5 years ago

Showstars - Aya-13Yo-Topless-01.avi


Dancing Showstars Aya Arina Hanna Jenny Oxi1    4 1 141.07 Mb 2 years ago

Dancing Showstars - Aya, Arina, Hanna, Jenny, Oxi.mp4


 

related search cloud

 tople  naina  showstars