Torrent Search | Torrent Meta Search | Widgets

Prisioneiros da Magia DVDRip DualAudio torrent share

802.17 Mb
found 6 years ago
▲ seeders: 1 ▼ leechers:1
your vote:
real:
fake:
download torrent

Prisioneiros da Magia DVDRip DualAudio torrent share torrent

Information about the torrent Prisioneiros da Magia DVDRip DualAudio torrent share. Seeders, leechers and torrent status is updated several times per day.

If you want to download the dvdrip torrent Prisioneiros da Magia DVDRip DualAudio torrent share you will need a torrent client.

Torrent Metasearch.

tracker
seeders
leechers
↓ torrent client compatible list

↑ hide torrent client compatible list

comments/reviews
140
torrent contents

Prisioneiros.da.Magia.DVDRip.DualAudio -www.torrent-share.blogspot.com.avi torrent

Prisioneiros.da.Magia.DVDRip.DualAudio -www.torrent-share.blogspot.com.avi802.17 Mb torrent search

Sample info:
Duration: 01:41:50.11, start: 0.000000, bitrate: 1101 kb/s
Stream #0.0: Video: mpeg4, yuv420p, 640x352 [PAR 1:1 DAR 20:11], 23.98 tb(r)
Stream #0.1: Audio: mp3, 48000 Hz, stereo, 128 kb/s
Stream #0.2: Audio: mp3, 48000 Hz, stereo, 128 kb/s
screenshots
Images are auto generated please report any inapropriate images
 

related search cloud

 share  blogspot  torrent  dualaudio  magia  dvdrip  prisioneiros