Torrent Search | Torrent Meta Search | Widgets

RipHerUp 13 02 04 Anna Porter XXX 1080p WMV SEXORS rarbg

1.25 Gb
found 4 years ago
▲ seeders: 0 ▼ leechers:1
your vote:
real:
fake:
download torrent

RipHerUp 13 02 04 Anna Porter XXX 1080p WMV SEXORS rarbg torrent

Information about the torrent RipHerUp 13 02 04 Anna Porter XXX 1080p WMV SEXORS rarbg. Seeders, leechers and torrent status is updated everyday.

If you want to download the adult torrent RipHerUp 13 02 04 Anna Porter XXX 1080p WMV SEXORS rarbg you will need a torrent client.

Torrent Metasearch.

tracker
seeders
leechers
comments/reviews
140
torrent contents

RipHerUp.13.02.04.Anna.Porter.XXX.1080p.WMV-SEXORS[rarbg] torrent

RipHerUp.13.02.04.Anna.Porter.XXX.1080p.WMV-SEXORS[rarbg]
RARBG.com.txt34 bytes torrent search
sexo-rhu-anna-130204.wmv1.25 Gb torrent search

Sample info:
Duration: 00:21:19.49, start: 0.000000, bitrate: 8408 kb/s
Stream #0.0: Audio: wmapro, 44100 Hz, stereo, flt, 440 kb/s
Stream #0.1: Video: wmv3 (Main), yuv420p, 1920x1080, 8000 kb/s, PAR 1:1 DAR 16:9, 25 tbr, 1k tbn, 1k tbc
screenshots
Images are auto generated please report any inapropriate images
 

related search cloud

 rarbg  anna  sexo  porter  ripherup  sexors