Torrent Search | Torrent Meta Search | Widgets

Facing The Giants (2006) BluRay 720p 700MB Ganool mkv

       
799.42 Mb
found 3 years ago
▲ seeders: 24 ▼ leechers:5
your vote:
real:
fake:

Facing the Giants

2006 · 111 min · 6.7/10 (12k votes) in imdb
Drama, Sport
Never give up. Never back down. Never lose faith.
Director: Alex Kendrick
From the award-winning producers of FLYWHEEL comes a new, action-packed, family-friendly drama about a high school football coach who draws up a new game plan for his team … and himself.
download torrent

Facing The Giants (2006) BluRay 720p 700MB Ganool mkv torrent

Information about the torrent Facing The Giants (2006) BluRay 720p 700MB Ganool mkv. Seeders, leechers and torrent status is updated several times per day.

If you want to download the hdrip torrent Facing The Giants (2006) BluRay 720p 700MB Ganool mkv you will need a torrent client.

Torrent Metasearch.

.

tracker
seeders
leechers
↓ torrent client compatible list

↑ hide torrent client compatible list

comments/reviews
140
torrent contents

[ www.UsaBit.com ] - Facing The Giants (2006) BluRay 720p 700MB Ganool.mkv torrent

[ www.UsaBit.com ] - Facing The Giants (2006) BluRay 720p 700MB Ganool.mkv799.42 Mb torrent search

Sample info:
Duration: 01:51:11.78, start: 0.000000, bitrate: N/A
Stream #0.0: Video: h264 (High), yuv420p, 1280x696 [PAR 1:1 DAR 160:87], 23.98 fps, 23.98 tbr, 1k tbn, 47.95 tbc (default)
Stream #0.1(eng): Audio: aac, 48000 Hz, stereo, s16 (default)
screenshots
Images are auto generated please report any inapropriate images
 

related search cloud

 ganool  bluray  giants  facing  usabit