Torrent Search | Torrent Meta Search | Widgets

Moj tata na odredjeno vreme (1982) domaci film

       
698.81 Mb
found 5 years ago
▲ seeders: 1 ▼ leechers:1
your vote:
real:
fake:
download torrent

Moj tata na odredjeno vreme (1982) domaci film torrent

Information about the torrent Moj tata na odredjeno vreme (1982) domaci film. Seeders, leechers and torrent status is updated everyday.

If you want to download the video torrent Moj tata na odredjeno vreme (1982) domaci film you will need a torrent client.

Torrent Metasearch.

Torrent verified by thepiratebay.se.

tracker
seeders
leechers
↓ torrent client compatible list

↑ hide torrent client compatible list

comments/reviews
140
torrent contents

Moj tata na odredjeno vreme(1982) domaci film torrent

Moj tata na odredjeno vreme(1982) domaci film
 Moj tata na odredjeno vreme by Cila65
Moj tata na odredjeno vreme.avi698.81 Mb torrent search

Sample info:
Duration: 01:25:07.36, start: 0.000000, bitrate: 1147 kb/s
Stream #0.0: Video: h264, yuv420p, 512x368, 25.00 tb(r)
Stream #0.1: Audio: ac3, 48000 Hz, stereo, 320 kb/s
screenshots
Images are auto generated please report any inapropriate images
 

related search cloud

 tata  vreme  odredjeno  cila  domaci  film