Torrent Search | Torrent Meta Search | Widgets

Lisa Ann Popasa ru

       
502.76 Mb
found 5 years ago
▲ seeders: 1 ▼ leechers:1
your vote:
real:
fake:
download torrent

Lisa Ann Popasa ru torrent

Information about the torrent Lisa Ann Popasa ru. A torrent file stores metadata that can be used from a BitTorrent client.

If you want to download the video torrent Lisa Ann Popasa ru you will need a torrent client.

Torrent Metasearch.

Torrent verified by kat.ph.

tracker
seeders
leechers
↓ torrent client compatible list

↑ hide torrent client compatible list

comments/reviews
140
torrent contents

Lisa Ann Popasa.ru.avi torrent

Lisa Ann Popasa.ru.avi502.76 Mb torrent search

Sample info:
Duration: 00:45:04.20, start: 0.000000, bitrate: 1559 kb/s
Stream #0.0: Video: mpeg4 (Advanced Simple Profile), yuv420p, 608x336 [PAR 1:1 DAR 38:21], 29.97 tbr, 29.97 tbn, 29.98 tbc
Stream #0.1: Audio: ac3, 48000 Hz, stereo, s16, 160 kb/s
screenshots
Images are auto generated please report any inapropriate images
 

related search cloud

 popasa  lisa