Torrent Search | Torrent Meta Search | Widgets

DivX ITA Bambola

699.8 Mb
found 5 years ago
▲ seeders: 3 ▼ leechers:2
your vote:
real:
fake:
download torrent

DivX ITA Bambola torrent

Information about the torrent DivX ITA Bambola. Seeders, leechers and torrent status is updated everyday.

If you want to download the video torrent DivX ITA Bambola you will need a torrent client.

Torrent Metasearch.

tracker
seeders
leechers
↓ torrent client compatible list

↑ hide torrent client compatible list

comments/reviews
140
torrent contents

[DivX-ITA] Bambola.avi torrent

[DivX-ITA] Bambola.avi699.8 Mb torrent search

Sample info:
Duration: 01:31:36.76, start: 0.000000, bitrate: 1067 kb/s
Stream #0.0: Video: mpeg4, yuv420p, 512x288 [PAR 1:1 DAR 16:9], 25.00 tb(r)
Stream #0.1: Audio: mp3, 44100 Hz, stereo, 128 kb/s
you may be interested in these torrents seeders leechers size found
Vis a Vis Temporada 1 HDTV Cap 110 Español Castellano1        612 222 936.89 Mb 3 days ago

Importante leer !!!!!.txt VaV110 [www.newpct1.com].avi w


Alli Abajo Temporada 1 HDTV Cap 112 Español Castellano1        598 390 875.31 Mb 6 days ago

AA112 [www.newpct1.com].avi Importante leer !!!!!.txt w


El Principe Temporada 2 HDTV Cap 210 Español Castellano1        425 221 836.73 Mb 6 days ago

EP210 [www.newpct1.com].avi Importante leer !!!!!.txt


GD AU S03E10 Clovelly House Revisited 22nd April (2013) PDTV Divx        423 24 480.48 Mb 2 years ago

GD.AU.S03E10.Clovelly.House.Revisited.22nd.April.2013.PDTV.Divx.avi


Cpasbien pw Greys Anatomy S11E23 FASTSUB VOSTFR HDTV XviD ZT cpasbien pe     385 16 455.24 Mb 2 months ago

[ www.Cpasbien.pw ] Greys.Anatomy.S11E23.FASTSUB.VOSTFR.HDTV.XviD-ZT.cpasbien.pe.avi


Waywards Pines 1x06 HDTV XviD1        350 64 488.91 Mb 3 days ago

Waywards.Pines.1x06.HDTV.XviD.[www.DivxTotaL.com].avi


Scandal 4x22 HDTV XviD1        349 43 485.87 Mb 3 days ago

Scandal.4x22.HDTV.XviD.[www.DivxTotaL.com].avi


Nikola Tesla Afera genija (2011) DivX SATRip ExKinoRay 324 8 614.55 Mb 11 months ago

Nikola.Tesla.Afera.genija.2011.DivX.SATRip.ExKinoRay.avi


Revenge 4x23 HDTV XviD     323 42 477.81 Mb 4 days ago

Revenge.4x23.HDTV.XviD.[www.DivxTotaL.com].avi


Le Monde de Nemo FRENCH DVDRip DiVX Ulysse   1        317 10 700.9 Mb 5 years ago

nemo-fr.avi nemo-fr.nfo


 

related search cloud

 bambola  divx