Torrent Search | Torrent Meta Search | Widgets

DivX ITA Bambola

699.8 Mb
found 4 years ago
▲ seeders: 1 ▼ leechers:1
your vote:
real:
fake:
download torrent

DivX ITA Bambola torrent

Information about the torrent DivX ITA Bambola. Seeders, leechers and torrent status is updated everyday.

If you want to download the video torrent DivX ITA Bambola you will need a torrent client.

Torrent Metasearch.

tracker
seeders
leechers
↓ torrent client compatible list

↑ hide torrent client compatible list

comments/reviews
140
torrent contents

[DivX-ITA] Bambola.avi torrent

[DivX-ITA] Bambola.avi699.8 Mb torrent search

Sample info:
Duration: 01:31:36.76, start: 0.000000, bitrate: 1067 kb/s
Stream #0.0: Video: mpeg4, yuv420p, 512x288 [PAR 1:1 DAR 16:9], 25.00 tb(r)
Stream #0.1: Audio: mp3, 44100 Hz, stereo, 128 kb/s
you may be interested in these torrents seeders leechers size found
Cpasbien pw The Flash (2014) S01E18 FASTSUB VOSTFR HDTV XviD ZT     920 37 382.61 Mb 18 days ago

[ www.Cpasbien.pw ] The.Flash.2014.S01E18.FASTSUB.VOSTFR.HDTV.XviD-ZT.avi


Nikola Tesla Afera genija (2011) DivX SATRip ExKinoRay 366 2 614.55 Mb 9 months ago

Nikola.Tesla.Afera.genija.2011.DivX.SATRip.ExKinoRay.avi


Golpe Duplo (2015) 720p HDRip Dual Audio Dublado   1        313 52 1.66 Gb 24 days ago

Mais Lançamentos Acesse.txt Não apaguei porfavor, ajuda Compartilhar.txt


Le Monde de Nemo FRENCH DVDRip DiVX Ulysse        287 10 700.9 Mb 4 years ago

nemo-fr.avi nemo-fr.nfo


Studenti razvratniki (2006) DviX DVDRip divx        278 12 734.38 Mb 3 years ago

Studenti-razvratniki.2006.DviX.DVDRip.divx


English Only Please (2014) MMFF CAMRip cubeme   1        276 89 1.58 Gb 4 months ago

English Only Please (2014) MMFF CAMRip [cubeme].avi English Only Please (2014)


Barashek Shon 80 seriy iz 80 1997 2010 DivX XviD DVDRip    208 28 8.93 Gb 3 years ago

Barashek.Shon.(01.seriya.iz.80).1997-2010.DivX.DVDRip.avi Barashek.Sho


Brat'ja po obmenu (2013) DivX SATRip    205 27 5.01 Gb 1 year ago

Brat'ja.po.obmenu.(10.serija.iz.10).(2013).DivX.SATRip.avi Brat'ja.po.ob


Modern Family Season 04 HDTV XviD        202 41 4.12 Gb 2 years ago

Modern.Family.S04E01.HDTV.XviD-AFG.avi Modern.Family.S04E02.HDTV.XviD-AFG.avi 0f


Toy Story FRENCH DVDRip DivX     201 8 700.82 Mb 4 years ago

Toy.Story.FRENCH.DVDRiP.DivX.avi


 

related search cloud

 bambola  divx