Torrent Search | Torrent Meta Search | Widgets

DivX ITA Bambola

699.8 Mb
found 4 years ago
▲ seeders: 2 ▼ leechers:0
your vote:
real:
fake:
download torrent

DivX ITA Bambola torrent

Information about the torrent DivX ITA Bambola. Seeders, leechers and torrent status is updated everyday.

If you want to download the video torrent DivX ITA Bambola you will need a torrent client.

Torrent Metasearch.

tracker
seeders
leechers
↓ torrent client compatible list

↑ hide torrent client compatible list

comments/reviews
140
torrent contents

[DivX-ITA] Bambola.avi torrent

[DivX-ITA] Bambola.avi699.8 Mb torrent search

Sample info:
Duration: 01:31:36.76, start: 0.000000, bitrate: 1067 kb/s
Stream #0.0: Video: mpeg4, yuv420p, 512x288 [PAR 1:1 DAR 16:9], 25.00 tb(r)
Stream #0.1: Audio: mp3, 44100 Hz, stereo, 128 kb/s
you may be interested in these torrents seeders leechers size found
Cpasbien pw Greys Anatomy S11E23 FASTSUB VOSTFR HDTV XviD ZT cpasbien pe     906 57 455.24 Mb 20 days ago

[ www.Cpasbien.pw ] Greys.Anatomy.S11E23.FASTSUB.VOSTFR.HDTV.XviD-ZT.cpasbien.pe.avi


Cpasbien pw Supergirl S01E01 FASTSUB VOSTFR HDTV XviD ZT     905 24 366.33 Mb 3 days ago

[ www.Cpasbien.pw ] Supergirl.S01E01.FASTSUB.VOSTFR.HDTV.XviD-ZT.avi


Cpasbien pw The Walking Dead S05E10 FRENCH LD WEB DL XviD ZT     824 7 361.62 Mb 10 days ago

[ www.Cpasbien.pw ] The.Walking.Dead.S05E10.FRENCH.LD.WEB-DL.XviD-ZT.avi


Cpasbien pw The Flash (2014) S01E18 FASTSUB VOSTFR HDTV XviD ZT     548 28 382.61 Mb 1 month ago

[ www.Cpasbien.pw ] The.Flash.2014.S01E18.FASTSUB.VOSTFR.HDTV.XviD-ZT.avi


Cpasbien pw Banshee S03E06 FRENCH LD HDTV XviD ZT     483 62 367.88 Mb 11 days ago

[ www.Cpasbien.pw ] Banshee.S03E06.FRENCH.LD.HDTV.XviD-ZT.avi


Maze Secret Love (2015) 720p SUBBED WEB DL DivX MP3 QUiCKY     462 112 2.5 Gb 6 days ago

Maze.Secret.Love.2015.720p.SUBBED.WEB-DL.DivX.MP3-QUiCKY.avi


Le Monde de Nemo FRENCH DVDRip DiVX Ulysse    1        305 8 700.9 Mb 4 years ago

nemo-fr.avi nemo-fr.nfo


Requiem for a Dream (2000)         280 46 778.22 Mb 4 years ago

Requiem.for.a.Dream.(2000).ab2103fe.jpg Requiem.for.a.Dream.(2000).nfo Requiem.for.a.Dream.(2000).O


Greys anatomy saison6 FRENCH     271 97 8.27 Gb 3 years ago

ga.s06e01-jmt.avi ga.s06e02-jmt.avi ga.s06e03-jmt.avi ga.s06e04-jm


Nikola Tesla Afera genija (2011) DivX SATRip ExKinoRay 228 5 614.55 Mb 10 months ago

Nikola.Tesla.Afera.genija.2011.DivX.SATRip.ExKinoRay.avi


 

related search cloud

 bambola  divx