Torrent Search | Torrent Meta Search | Widgets

Pamela Anderson The Best Of Pamela Anderson

       
699.02 Mb
found 3 years ago
▲ seeders: 1 ▼ leechers:1
your vote:
real:
fake:
download torrent

Pamela Anderson The Best Of Pamela Anderson torrent

Information about the torrent Pamela Anderson The Best Of Pamela Anderson. Seeders, leechers and torrent status is updated everyday.

If you want to download the video torrent Pamela Anderson The Best Of Pamela Anderson you will need a torrent client.

Torrent Metasearch.

.

tracker
seeders
leechers
↓ torrent client compatible list

↑ hide torrent client compatible list

comments/reviews
140
torrent contents

Pamela Anderson - The Best Of Pamela Anderson torrent

Pamela Anderson - The Best Of Pamela Anderson
[Playboy] 1995 - Pamela Anderson - The Best Of Pamela Anderson [00'53'55][AVI][512x384].avi699.02 Mb torrent search

Sample info:
Duration: 00:53:55.94, start: 0.000000, bitrate: 1812 kb/s
Stream #0.0: Video: msmpeg4, yuv420p, 512x384, 23.98 tbr, 23.98 tbn, 23.98 tbc
Stream #0.1: Audio: mp3, 44100 Hz, stereo, s16, 127 kb/s
screenshots
Images are auto generated please report any inapropriate images
 

related search cloud

 pamela  anderson  best  playboy