Torrent Search | Torrent Meta Search | Widgets

Johnny English Reborn (2011) TS2DVD DD2 0 NL Subs EE Rel NL

       
3.88 Gb
found 3 years ago
▲ seeders: 3 ▼ leechers:0
your vote:
real:
fake:

Johnny English Reborn

2011 · 101 min · 6.3/10 (74k votes) in imdb
Action, Comedy, Adventure, Thriller
Laugh at the face of danger
Director: Oliver Parker
Writer: William Davies
Johnny English Reborn is a 2011 British spy comedy film parodying the James Bond secret agent genre and film franchise reboots. The film is the sequel to Johnny English (2003), and stars Rowan Atkinson reprising his role as the title character and directed by Oliver Parker. The film has a slightly darker tone than the previous film but retains Atkinson's signature humor.
download torrent

Johnny English Reborn (2011) TS2DVD DD2 0 NL Subs EE Rel NL torrent

Information about the torrent Johnny English Reborn (2011) TS2DVD DD2 0 NL Subs EE Rel NL. Seeders, leechers and torrent status is updated everyday.

If you want to download the dvd torrent Johnny English Reborn (2011) TS2DVD DD2 0 NL Subs EE Rel NL you will need a torrent client.

Torrent Metasearch.

Torrent verified by thepiratebay.org.

tracker
seeders
leechers
↓ torrent client compatible list

↑ hide torrent client compatible list

comments/reviews
140
torrent contents

Johnny.English.Reborn.2011.TS2DVD.DD2.0.NL.Subs.EE.Rel.NL torrent

Johnny.English.Reborn.2011.TS2DVD.DD2.0.NL.Subs.EE.Rel.NL
 Johnny.English.Reborn.2011.TS2DVD.DD2.0.NL.Subs.EE.Rel.NL
 VIDEO_TS
VTS_01_1.VOB1000.19 Mb torrent search
VTS_01_3.VOB1000.15 Mb torrent search
VTS_01_2.VOB999.92 Mb torrent search
VTS_01_4.VOB974.7 Mb torrent search
VTS_01_0.BUP64 Kb torrent search
VTS_01_0.IFO64 Kb torrent search
VIDEO_TS.VOB40 Kb torrent search
VIDEO_TS.IFO12 Kb torrent search
VIDEO_TS.BUP12 Kb torrent search

Johnny.English.Reborn.2011.TS2DVD.DD2.0.NL.Subs.EE.Rel.NL
Johnny.English.Reborn.2011.TS2DVD.DD2.0.NL.Subs.EE.Rel.NL.nfo1.56 Kb torrent search
Torrent downloaded from AhaShare.com.txt58 bytes torrent search
Torrent downloaded from Demonoid.me.txt46 bytes torrent search
Torrent Downloaded from TorrentState.com.txt46 bytes torrent search
Torrent_downloaded_from_www.puretorrents.cc.txt36 bytes torrent search
Torrent downloaded from Rarbg.com.txt33 bytes torrent search
Torrent downloaded from silvertorrents.me.txt29 bytes torrent search

Sample info:
Duration: 00:23:27.61, start: 0.233567, bitrate: 5960 kb/s
Stream #0.0[0x1e0]: Video: mpeg2video, yuv420p, 720x480 [PAR 32:27 DAR 16:9], 8000 kb/s, 29.97 fps, 29.97 tbr, 90k tbn, 59.94 tbc
Stream #0.1[0x80]: Audio: ac3, 48000 Hz, stereo, s16, 192 kb/s
you may be interested in these torrents seeders leechers size found
Johnny English Reborn (2011)    1        87 16 651.78 Mb 3 years ago

Johnny.English.Reborn.2011.720p.BrRip.x264.mp4 Johnny.English.Reborn.2011.720p.BrRip.x264.srt


Johnny English Reborn (2011) 1080p BluRay x264 anoXmous     54 10 1.75 Gb 1 year ago

Johnny.English.Reborn.2011.1080p.BluRay.x264.anoXmous_.mp4 Johnny.Englis


Johnny English Reborn (2011) DVDRip XviD MAXSPEED    3   1        50 7 1.47 Gb 3 years ago

Johnny English Reborn (2011) DVDRip XviD-MAXSPEED www.torentz.3xforum.ro.avi


Johnny English Reborn (2011) 720p BluRay x264 HAiDEAF         9 1 4.37 Gb 3 years ago

Read Me.txt Torrent Downloaded From ExtraTorrent.com.txt haidea jer.nfo 0


Johnny English Reborn (2011) Blu Ray 720p x264 Dual Audio Eng DD5 1+Hindi DD5 1 Hon3y     1     9 3 1.46 Gb 6 months ago

Johnny English Reborn [2011] Blu-Ray 720p x264 Dual


Johnny English Reborn (2011) DVDRip NL subs DutchReleaseTeam         6 1 1.17 Gb 3 years ago

Johnny English Reborn (2011) DVDRip NL subs DutchReleaseTeam.avi s


Johnny English Reborn (2011) BRRip 720p^^Dual Audio Eng Hindi ^^TAKRIAN^^    1    6 8 725.22 Mb 3 years ago

Sample.mkv Steal It Feel It.jpg


Johnny English Reborn (2011) x264 BDRip AVC mkv     5 0 2.14 Gb 3 years ago

Johnny.English.Reborn.2011.x264.BDRip.AVC.mkv


Johnny English Reborn (2011) 1080p BDRip Dual Audio English + Hindi DTS x264 Hon3y     5 4 3.66 Gb 6 months ago

sample.mkv Johnny English Reborn [2011]


Johhny English Reborn (2011) DVDRip XviD Lebo         5 4 1.16 Gb 3 years ago

Torrent Downloaded From ExtraTorrent.com.txt Johnny English Reborn 2011 DVDRIP Xvid-lebo.a


 

related search cloud

 torrent  downloaded  reborn  johnny  english  video  subs  rarbg  silvertorrents  puretorrents