Torrent Search | Torrent Meta Search | Widgets

PAKISTANI SEXY BABE SALMA HAVING SEX WITH BOYFRIEND~ 12 MINS

       
34.22 Mb
found 4 years ago
▲ seeders: 0 ▼ leechers:1
your vote:
real:
fake:
download torrent

PAKISTANI SEXY BABE SALMA HAVING SEX WITH BOYFRIEND~ 12 MINS torrent

Information about the torrent PAKISTANI SEXY BABE SALMA HAVING SEX WITH BOYFRIEND~ 12 MINS. Seeders, leechers and torrent status is updated several times per day.

If you want to download the video torrent PAKISTANI SEXY BABE SALMA HAVING SEX WITH BOYFRIEND~ 12 MINS you will need a torrent client.

Torrent Metasearch.

Torrent verified by torlock.com.

tracker
seeders
leechers
↓ torrent client compatible list

↑ hide torrent client compatible list

comments/reviews
140
torrent contents

PAKISTANI SEXY BABE SALMA HAVING SEX WITH BOYFRIEND~ 12 MINS torrent

PAKISTANI SEXY BABE SALMA HAVING SEX WITH BOYFRIEND~ 12 MINS
PAKISTANI SEXY BABE SALMA HAVING SEX WITH BOYFRIEND~ 12 MINS.avi34.22 Mb torrent search
More Collection.rar732 bytes torrent search
@More Stuff!!!.txt131 bytes torrent search

Sample info:
Duration: 00:12:10.00, start: 0.000000, bitrate: 393 kb/s
Stream #0:0: Video: mpeg4 (Advanced Simple Profile) (XVID / 0x44495658), yuv420p, 352x288 [SAR 1:1 DAR 11:9], 12 tbr, 12 tbn, 12 tbc
Stream #0:1: Audio: mp3 (U[0][0][0] / 0x0055), 22050 Hz, mono, s16, 160 kb/s
screenshots
PAKISTANI SEXY BABE SALMA torrent screenshot 887A9225C5E75D9DD83C8A8264E44FFDD80999BC PAKISTANI SEXY BABE SALMA  torrent screenshot 887a9225c5e75d9dd83c8a8264e44ffdd80999bc torrent PAKISTANI SEXY BABE SALMA
Images are auto generated please report any inapropriate images
 

related search cloud

 boyfriend  mins  more  pakistani  having  salma  sexy  babe  stuff  collection