Torrent Search | Torrent Meta Search | Widgets

Alyssa Branch wmv

       
214.75 Mb
found 3 years ago
▲ seeders: 2 ▼ leechers:1
your vote:
real:
fake:
download torrent

Alyssa Branch wmv torrent

Information about the torrent Alyssa Branch wmv. Seeders, leechers and torrent status is updated several times per day.

If you want to download the video torrent Alyssa Branch wmv you will need a torrent client.

Torrent Metasearch.

.

tracker
seeders
leechers
↓ torrent client compatible list

↑ hide torrent client compatible list

comments/reviews
140
torrent contents

FemdomEmpire.com Alyssa Branch.wmv.wmv torrent

FemdomEmpire.com Alyssa Branch.wmv.wmv214.75 Mb torrent search

Sample info:
Duration: 00:07:08.77, start: 0.000000, bitrate: 4201 kb/s
Stream #0.0(eng): Audio: wmav2, 48000 Hz, 2 channels, s16, 192 kb/s
Stream #0.1(eng): Video: wmv3 (Main), yuv420p, 1280x720, 3999 kb/s, 29.97 tbr, 1k tbn, 1k tbc
screenshots
Images are auto generated please report any inapropriate images
 

related search cloud

 branch  alya  femdomempire