Torrent Search | Torrent Meta Search | Widgets

DivX ITA Aldo Giovanni e Giacomo I Corti

       
709.55 Mb
found 5 years ago
▲ seeders: 2 ▼ leechers:1
your vote:
real:
fake:
download torrent

DivX ITA Aldo Giovanni e Giacomo I Corti torrent

Information about the torrent DivX ITA Aldo Giovanni e Giacomo I Corti. Seeders, leechers and torrent status is updated everyday.

If you want to download the video torrent DivX ITA Aldo Giovanni e Giacomo I Corti you will need a torrent client.

Torrent Metasearch.

Torrent verified by kat.ph.

tracker
seeders
leechers
↓ torrent client compatible list

↑ hide torrent client compatible list

comments/reviews
140
torrent contents

[DivX - ITA] Aldo Giovanni e Giacomo - I Corti .avi torrent

[DivX - ITA] Aldo Giovanni e Giacomo - I Corti .avi709.55 Mb torrent search

Sample info:
Duration: 01:59:47.64, start: 0.000000, bitrate: 828 kb/s
Stream #0.0: Video: msmpeg4, yuv420p, 456x332, 25 tbr, 25 tbn, 25 tbc
Stream #0.1: Audio: mp3, 44100 Hz, stereo, s16, 102 kb/s
screenshots
Images are auto generated please report any inapropriate images
 

related search cloud

 corti  giacomo  giovanni  aldo  divx