Torrent Search | Torrent Meta Search | Widgets

Juego de Tronos 1x04

550 Mb
found 5 years ago
▲ seeders: 82 ▼ leechers:6
your vote:
real:
fake:
download torrent

Juego de Tronos 1x04 torrent

Information about the torrent Juego de Tronos 1x04. Seeders, leechers and torrent status is updated several times per day.

If you want to download the video torrent Juego de Tronos 1x04 you will need a torrent client.

Torrent Metasearch.

tracker
seeders
leechers
↓ torrent client compatible list

↑ hide torrent client compatible list

comments/reviews
140
torrent contents

Juego.de.Tronos.1x04.avi torrent

Juego.de.Tronos.1x04.avi550 Mb torrent search

Sample info:
Duration: 00:52:14.44, start: 0.000000, bitrate: 1471 kb/s
Stream #0.0: Video: mpeg4 (Advanced Simple Profile), yuv420p, 624x352 [PAR 1:1 DAR 39:22], 25 tbr, 25 tbn, 25 tbc
Stream #0.1: Audio: mp3, 48000 Hz, stereo, s16, 123 kb/s
screenshots
Images are auto generated please report any inapropriate images
 

related search cloud

 tronos  juego