Torrent Search | Torrent Meta Search | Widgets

IESP 574

1.4 Gb
found 3 years ago
▲ seeders: 1 ▼ leechers:0
your vote:
real:
fake:
download torrent

IESP 574 torrent

Information about the torrent IESP 574. Seeders, leechers and torrent status is updated several times per day.

If you want to download the video torrent IESP 574 you will need a torrent client.

Torrent Metasearch.

No trackers with seeders or leechers have been found, this doesn't mean that the torrent IESP 574 is dead
comments/reviews
140
torrent contents

IESP-574 torrent

IESP-574
5120911 @ sex8.cc.txt161 bytes torrent search
99BT工厂最新地址.mht127.48 Kb torrent search
IESP-574.mkv1.4 Gb torrent search
Sky.jpg16.34 Kb torrent search
今日新片发布.mht90.56 Kb torrent search
全国各地援交妹.mht490 bytes torrent search
最新の步兵骑兵西洋兵.url2.85 Kb torrent search
爱唯侦察_最新地址.chm11.29 Kb torrent search
真钱赌博性感荷官与您相约.mht495 bytes torrent search

Sample info:
Duration: 02:00:23.32, start: 0.000000, bitrate: 1659 kb/s
Stream #0:0(eng): Video: h264 (Constrained Baseline), yuv420p, 720x520 [SAR 13:12 DAR 3:2], 29.97 fps, 29.97 tbr, 1k tbn, 59.94 tbc (default)
Stream #0:1(eng): Audio: aac, 48000 Hz, stereo, s16 (default)
Stream #0:2: Subtitle: ssa (default)
screenshots
Images are auto generated please report any inapropriate images
 

related search cloud

 iesp