Torrent Search | Torrent Meta Search | Widgets

My Little Panties #5

       
1.6 Gb
found 2 years ago
▲ seeders: 3 ▼ leechers:0
your vote:
real:
fake:
download torrent

My Little Panties #5 torrent

Information about the torrent My Little Panties #5. Seeders, leechers and torrent status is updated several times per day.

If you want to download the video torrent My Little Panties #5 you will need a torrent client.

Torrent Metasearch.

.

comments/reviews
140
torrent contents

My Little Panties #5 torrent

My Little Panties #5
sc1_caliH.mp4443.7 Mb torrent search
sc2_carmenC.mp4451 Mb torrent search
sc3_kennedyL.mp4341.2 Mb torrent search
sc4_natashaM.mp4398 Mb torrent search

Sample info:
Duration: 00:31:48.97, start: 0.000000, bitrate: 1981 kb/s
Stream #0.0	: Video: h264 (High), yuv420p, 720x404 [PAR 2705:2713 DAR 486900:274013], 1849 kb/s, PAR 7777:7800 DAR 231:130, 23.98 fps, 29.97 tbr, 30k tbn, 59.94 tbc
Stream #0.1	: Audio: aac, 48000 Hz, stereo, s16, 128 kb/s
Stream #0.2	: Video: h264, 720x404, PAR 7777:7800 DAR 231:130, 23.98 fps, 30k tbr, 30k tbn, 60k tbc
screenshots
My Little Panties #5 torrent screenshot 9BD8881207EED8E7EF462EB2B39F46526F68568F My Little Panties #5 torrent screenshot 9bd8881207eed8e7ef462eb2b39f46526f68568f torrent My Little Panties #5
Images are auto generated please report any inapropriate images
 

related search cloud

 kennedyl  natasham  carmenc  calih  panties  little