Torrent Search | Torrent Meta Search | Widgets

Johnny English Le Retour FRENCH DVDRip XviD AYMO

       
701.1 Mb
found 5 years ago
▲ seeders: 75 ▼ leechers:5
your vote:
real:
fake:
download torrent

Johnny English Le Retour FRENCH DVDRip XviD AYMO torrent

Information about the torrent Johnny English Le Retour FRENCH DVDRip XviD AYMO. Seeders, leechers and torrent status is updated several times per day.

If you want to download the dvdrip torrent Johnny English Le Retour FRENCH DVDRip XviD AYMO you will need a torrent client.

Torrent Metasearch.

Torrent verified by kat.ph.

tracker
seeders
leechers
↓ torrent client compatible list

↑ hide torrent client compatible list

comments/reviews
140
torrent contents

Johnny.English.Le.Retour.FRENCH.DVDRip.XviD-AYMO torrent

Johnny.English.Le.Retour.FRENCH.DVDRip.XviD-AYMO
johnny.avi701.09 Mb torrent search
aymo_xvid_jelr.jpg5.38 Kb torrent search
aymo_xvid_jelr.nfo387 bytes torrent search

Sample info:
Duration: 01:37:26.56, start: 0.000000, bitrate: 1005 kb/s
Stream #0.0: Video: mpeg4, yuv420p, 640x272 [PAR 1:1 DAR 40:17], 25 tbr, 25 tbn, 25 tbc
Stream #0.1: Audio: mp3, 48000 Hz, 2 channels, s16, 128 kb/s
screenshots
Images are auto generated please report any inapropriate images
 

related search cloud

 aymo  xvid  johnny  jelr  french  english  retour  dvdrip