Torrent Search | Torrent Meta Search | Widgets

The Handmaiden (2016) BluRay 720p x264 875MB nItRo XpoZ

872.69 Mb
found 3 months ago
▲ seeders: 796 ▼ leechers:165
your vote:
real:
fake:

The Handmaiden

2016 · 144 min · 8.1/10 (18k votes) in imdb
Drama, Romance
Director: Chan-wook Park
1930s Korea, in the period of Japanese occupation, Sook-hee is hired as a handmaiden to Japanese heiress Hideko, who lives a secluded life on an estate with her domineering Uncle Kouzuki. But the maid has a secret. She and a swindler, who poses as a Japanese Count, are scheming to get the Lady engaged, rob her fortune and lock her up in a madhouse. All proceeds according to plan until Sook-hee starts to truly understand Hideko.
download torrent

The Handmaiden (2016) BluRay 720p x264 875MB nItRo XpoZ torrent

Information about the torrent The Handmaiden (2016) BluRay 720p x264 875MB nItRo XpoZ. Seeders, leechers and torrent status is updated everyday.

If you want to download the hdrip torrent The Handmaiden (2016) BluRay 720p x264 875MB nItRo XpoZ you will need a torrent client.

Torrent Metasearch.

tracker
seeders
leechers
↓ torrent client compatible list

↑ hide torrent client compatible list

comments/reviews
140
torrent contents

The Handmaiden (2016) BluRay 720p x264 875MB (nItRo)-XpoZ torrent

The Handmaiden (2016) BluRay 720p x264 875MB (nItRo)-XpoZ
The Handmaiden (2016) BluRay 720p x264 875MB (nItRo)-XpoZ.mkv871.99 Mb torrent search

The Handmaiden (2016) BluRay 720p x264 875MB (nItRo)-XpoZ
 Screens Cap
The Handmaiden (2016) BluRay 720p x264 875MB (nItRo)-XpoZ[(100580)2016-11-02-14-09-59].JPG152.94 Kb torrent search
The Handmaiden (2016) BluRay 720p x264 875MB (nItRo)-XpoZ[(145687)2016-11-02-14-10-28].JPG114.39 Kb torrent search
The Handmaiden (2016) BluRay 720p x264 875MB (nItRo)-XpoZ[(059966)2016-11-02-14-09-52].JPG113.54 Kb torrent search
The Handmaiden (2016) BluRay 720p x264 875MB (nItRo)-XpoZ[(012214)2016-11-02-14-09-48].JPG111.65 Kb torrent search
The Handmaiden (2016) BluRay 720p x264 875MB (nItRo)-XpoZ[(195711)2016-11-02-14-10-37].JPG94.41 Kb torrent search

The Handmaiden (2016) BluRay 720p x264 875MB (nItRo)-XpoZ
The Handmaiden (2016) BluRay 720p x264 875MB (nItRo)-XpoZ.srt86.92 Kb torrent search
Poster.jpg23.38 Kb torrent search
XpoZ.Torrent.txt19.35 Kb torrent search
Torrent InFo.txt1.77 Kb torrent search
Torrent Downloads From.txt252 bytes torrent search
Like My New Facebook Fan Page.txt32 bytes torrent search

Sample info:
Duration: 02:19:05.03, start: 0.000000, bitrate: 876 kb/s
Stream #0:0: Video: h264 (High), yuv420p, 1280x536 [SAR 1:1 DAR 160:67], 25 fps, 25 tbr, 1k tbn, 50 tbc (default)
title	: www.300mbfilms.com & 300mbfilms.org @ nItRo
BPS	: 810628
BPS-eng	: 810628
DURATION	: 02:19:05.000000000
DURATION-eng	: 02:19:05.000000000
NUMBER_OF_FRAMES: 208625
NUMBER_OF_FRAMES-eng: 208625
NUMBER_OF_BYTES : 845586812
NUMBER_OF_BYTES-eng: 845586812
_STATISTICS_WRITING_APP: mkvmerge v9.4.0 ('Knurl') 64bit
_STATISTICS_WRITING_APP-eng: mkvmerge v9.4.0 ('Knurl') 64bit
_STATISTICS_WRITING_DATE_UTC: 2016-10-29 09:41:49
_STATISTICS_WRITING_DATE_UTC-eng: 2016-10-29 09:41:49
_STATISTICS_TAGS: BPS DURATION NUMBER_OF_FRAMES NUMBER_OF_BYTES
_STATISTICS_TAGS-eng: BPS DURATION NUMBER_OF_FRAMES NUMBER_OF_BYTES
Stream #0:1: Audio: aac (HE-AAC), 48000 Hz, stereo, fltp (default)
title	: www.300mbfilms.com & 300mbfilms.org @ nItRo
BPS	: 63968
BPS-eng	: 63968
DURATION	: 02:19:05.003000000
DURATION-eng	: 02:19:05.003000000
NUMBER_OF_FRAMES: 195586
NUMBER_OF_FRAMES-eng: 195586
NUMBER_OF_BYTES : 66727620
NUMBER_OF_BYTES-eng: 66727620
_STATISTICS_WRITING_APP: mkvmerge v9.4.0 ('Knurl') 64bit
_STATISTICS_WRITING_APP-eng: mkvmerge v9.4.0 ('Knurl') 64bit
_STATISTICS_WRITING_DATE_UTC: 2016-10-29 09:41:49
_STATISTICS_WRITING_DATE_UTC-eng: 2016-10-29 09:41:49
_STATISTICS_TAGS: BPS DURATION NUMBER_OF_FRAMES NUMBER_OF_BYTES
_STATISTICS_TAGS-eng: BPS DURATION NUMBER_OF_FRAMES NUMBER_OF_BYTES
Stream #0:2: Subtitle: subrip (default)
title	: www.300mbfilms.com & 300mbfilms.org @ nItRo
BPS	: 37
BPS-eng	: 37
DURATION	: 02:16:59.961000000
DURATION-eng	: 02:16:59.961000000
NUMBER_OF_FRAMES: 1253
NUMBER_OF_FRAMES-eng: 1253
NUMBER_OF_BYTES : 38717
NUMBER_OF_BYTES-eng: 38717
_STATISTICS_WRITING_APP: mkvmerge v9.4.0 ('Knurl') 64bit
_STATISTICS_WRITING_APP-eng: mkvmerge v9.4.0 ('Knurl') 64bit
_STATISTICS_WRITING_DATE_UTC: 2016-10-29 09:41:49
_STATISTICS_WRITING_DATE_UTC-eng: 2016-10-29 09:41:49
_STATISTICS_TAGS: BPS DURATION NUMBER_OF_FRAMES NUMBER_OF_BYTES
_STATISTICS_TAGS-eng: BPS DURATION NUMBER_OF_FRAMES NUMBER_OF_BYTES
screenshots
Images are auto generated please report any inapropriate images
 

related search cloud

 xpoz  bluray  nitro  handmaiden  torrent  facebook  page  like  poster  screens