Torrent Search | Torrent Meta Search | Widgets

White Chicks And Big Black Dicks Gang Bang

       
2.05 Gb
found 5 years ago
▲ seeders: 1 ▼ leechers:1
your vote:
real:
fake:
download torrent

White Chicks And Big Black Dicks Gang Bang torrent

Information about the torrent White Chicks And Big Black Dicks Gang Bang. Seeders, leechers and torrent status is updated everyday.

If you want to download the video torrent White Chicks And Big Black Dicks Gang Bang you will need a torrent client.

Torrent Metasearch.

Torrent verified by kat.ph.

tracker
seeders
leechers
↓ torrent client compatible list

↑ hide torrent client compatible list

comments/reviews
140
torrent contents

White Chicks And Big Black Dicks Gang Bang torrent

White Chicks And Big Black Dicks Gang Bang
White Chicks And Big Black Dicks Gang Bang CD1.avi698.85 Mb torrent search
White Chicks And Big Black Dicks Gang Bang CD2.avi699.19 Mb torrent search
White Chicks And Big Black Dicks Gang Bang CD3.avi698.99 Mb torrent search

Sample info:
Duration: 01:13:59.53, start: 0.000000, bitrate: 1321 kb/s
Stream #0.0: Video: mpeg4, yuv420p, 512x384 [PAR 1:1 DAR 4:3], 29.97 tbr, 29.97 tbn, 29.98 tbc
Stream #0.1: Audio: mp3, 48000 Hz, 2 channels, s16, 137 kb/s
screenshots
Images are auto generated please report any inapropriate images
 

related search cloud

 gang  bang  dicks  black  chicks  white