Torrent Search | Torrent Meta Search | Widgets

Star Trek The Original Series Remastered And Enhanced

       
36.9 Gb
found 6 years ago
▲ seeders: 1 ▼ leechers:1
your vote:
real:
fake:
download torrent

Star Trek The Original Series Remastered And Enhanced torrent

Information about the torrent Star Trek The Original Series Remastered And Enhanced. Seeders, leechers and torrent status is updated several times per day.

If you want to download the tv torrent Star Trek The Original Series Remastered And Enhanced you will need a torrent client.

Torrent Metasearch.

Torrent verified by isohunt.com.

tracker
seeders
leechers
↓ torrent client compatible list

↑ hide torrent client compatible list

comments/reviews
anonymous 04 Aug 2016, 11:08:42
It's not in English.
140
torrent contents

Star Trek The Original Series Remastered And Enhanced torrent

Star Trek The Original Series Remastered And Enhanced
 Season 1
S01E00 The Cage (Extended Version).avi498.95 Mb torrent search
S01E00 The Cage.avi424.69 Mb torrent search
S01E01 The Man Trap Preview Trailer.avi9.18 Mb torrent search
S01E01 The Man Trap.avi399.66 Mb torrent search
S01E02 Charlie X Preview Trailer.avi8.86 Mb torrent search
S01E02 Charlie X.avi399.63 Mb torrent search
S01E03 Where No Man Has Gone Before Preview Trailer.avi9.16 Mb torrent search
S01E03 Where No Man Has Gone Before.avi399.58 Mb torrent search
S01E04 The Naked Time Preview Trailer.avi9.16 Mb torrent search
S01E04 The Naked Time.avi399.7 Mb torrent search
S01E05 The Enemy Within Preview Trailer.avi8.92 Mb torrent search
S01E05 The Enemy Within.avi399.46 Mb torrent search
S01E06 Mudds Women Preview Trailer.avi9.24 Mb torrent search
S01E06 Mudds Women.avi399.69 Mb torrent search
S01E07 What Are Little Girls Made of Preview Trailer.avi8.86 Mb torrent search
S01E07 What Are Little Girls Made of.avi399.6 Mb torrent search
S01E08 Miri Preview Trailer.avi9.01 Mb torrent search
S01E08 Miri.avi399.64 Mb torrent search
S01E09 Dagger of The Mind Preview Trailer.avi8.98 Mb torrent search
S01E09 Dagger of The Mind.avi399.49 Mb torrent search
S01E10 The Corbomite Maneuver Preview Trailer.avi9.25 Mb torrent search
S01E10 The Corbomite Maneuver.avi399.57 Mb torrent search
S01E11 The Menagerie Part I Preview Trailer.avi9.06 Mb torrent search
S01E11 The Menagerie Part I.avi399.7 Mb torrent search
S01E12 The Menagerie Part II Preview Trailer.avi9.25 Mb torrent search
S01E12 The Menagerie Part II.avi399.58 Mb torrent search
S01E13 The Conscience of The King Preview Trailer.avi8.88 Mb torrent search
S01E13 The Conscience of The King.avi399.69 Mb torrent search
S01E14 Balance of Terror Preview Trailer.avi9.05 Mb torrent search
S01E14 Balance of Terror.avi399.64 Mb torrent search
S01E15 Shore Leave Preview Trailer.avi8.95 Mb torrent search
S01E15 Shore Leave.avi399.58 Mb torrent search
S01E16 The Galileo Seven Preview Trailer.avi8.96 Mb torrent search
S01E16 The Galileo Seven.avi399.62 Mb torrent search
S01E17 The Squire of Gothos Preview Trailer.avi9.14 Mb torrent search
S01E17 The Squire of Gothos.avi399.69 Mb torrent search
S01E18 Arena Preview Trailer.avi8.71 Mb torrent search
S01E18 Arena.avi399.47 Mb torrent search
S01E19 Tomorrow Is Yesterday Preview Trailer.avi9.21 Mb torrent search
S01E19 Tomorrow Is Yesterday.avi399.73 Mb torrent search
S01E20 Court Martial Preview Trailer.avi9.12 Mb torrent search
S01E20 Court Martial.avi399.6 Mb torrent search
S01E21 The Return of The Archons Preview Trailer.avi9 Mb torrent search
S01E21 The Return of The Archons.avi399.69 Mb torrent search
S01E22 Space Seed Preview Trailer.avi9.12 Mb torrent search
S01E22 Space Seed.avi399.59 Mb torrent search
S01E23 A Taste of Armageddon Preview Trailer.avi9.04 Mb torrent search
S01E23 A Taste of Armageddon.avi399.67 Mb torrent search
S01E24 This Side of Paradise Preview Trailer.avi8.68 Mb torrent search
S01E24 This Side of Paradise.avi399.71 Mb torrent search
S01E25 The Devil In The Dark Preview Trailer.avi9.09 Mb torrent search
S01E25 The Devil In The Dark.avi399.63 Mb torrent search
S01E26 Errand of Mercy Preview Trailer.avi9.32 Mb torrent search
S01E26 Errand of Mercy.avi399.53 Mb torrent search
S01E27 The Alternative Factor Preview Trailer.avi8.87 Mb torrent search
S01E27 The Alternative Factor.avi399.7 Mb torrent search
S01E28 The City on The Edge of Forever Preview Trailer.avi8.98 Mb torrent search
S01E28 The City on The Edge of Forever.avi399.56 Mb torrent search

Sample info:
Duration: 01:30:03.49, start: 0.000000, bitrate: 1085 kb/s
Stream #0.0: Video: mpeg4, yuv420p, 720x416 [PAR 1:1 DAR 45:26], 29.97 tbr, 29.97 tbn, 29.98 tbc
Stream #0.1: Audio: mp3, 48000 Hz, 2 channels, s16, 128 kb/s
screenshots
Images are auto generated please report any inapropriate images
 

related search cloud

 preview  trailer  menagerie  part  yesterday  tomorrow  court  martial  archons  return