Torrent Search | Torrent Meta Search | Widgets

Private Specials 82 Erika Nataly SD

408.63 Mb
found 3 years ago
▲ seeders: 1 ▼ leechers:2
your vote:
real:
fake:
download torrent

Private Specials 82 Erika Nataly SD torrent

Information about the torrent Private Specials 82 Erika Nataly SD. A torrent file stores metadata that can be used from a BitTorrent client.

If you want to download the video torrent Private Specials 82 Erika Nataly SD you will need a torrent client.

Torrent Metasearch.

tracker
seeders
leechers
↓ torrent client compatible list

↑ hide torrent client compatible list

comments/reviews
140
torrent contents

Private.Specials.82.Erika.Nataly.SD.mp4 torrent

Private.Specials.82.Erika.Nataly.SD.mp4408.63 Mb torrent search

Sample info:
Duration: 00:30:04.54, start: 0.000000, bitrate: 1899 kb/s
Stream #0:0	: Video: h264 (High) (avc1 / 0x31637661), yuv420p, 720x404 [SAR 1:1 DAR 180:101], 1697 kb/s, 25 fps, 25 tbr, 25k tbn, 50 tbc
creation_time	: 2013-09-01 06:41:25
handler_name	: Imported with GPAC 0.4.6-DEV (internal rev. 5)
Stream #0:1(eng): Audio: aac (mp4a / 0x6134706D), 48000 Hz, stereo, s16, 114 kb/s
creation_time	: 2013-09-01 06:41:30
handler_name	: GPAC ISO Audio Handler
Stream #0:2	: Data: none (rtp	/ 0x20707472)
creation_time	: 2013-09-01 06:41:30
handler_name	: GPAC ISO Hint Handler
Stream #0:3	: Data: none (rtp	/ 0x20707472)
creation_time	: 2013-09-01 06:41:31
handler_name	: GPAC ISO Hint Handler
screenshots
Images are auto generated please report any inapropriate images
 

related search cloud

 nataly  erika  specials  private