Torrent Search | Torrent Meta Search | Widgets

Anal Class

       
1.37 Gb
found 3 years ago
▲ seeders: 3 ▼ leechers:0
your vote:
real:
fake:
download torrent

Anal Class torrent

Information about the torrent Anal Class. Seeders, leechers and torrent status is updated everyday.

If you want to download the anal torrent Anal Class you will need a torrent client.

Torrent Metasearch.

Torrent verified by kat.ph.

tracker
seeders
leechers
↓ torrent client compatible list

↑ hide torrent client compatible list

comments/reviews
140
torrent contents

Anal Class torrent

Anal Class
Anal Class CD1.avi701.54 Mb torrent search
Anal Class CD2.avi700.73 Mb torrent search

Sample info:
Duration: 01:17:15.32, start: 0.000000, bitrate: 1269 kb/s
Stream #0:0: Video: mpeg4 (Advanced Simple Profile) (XVID / 0x44495658), yuv420p, 640x352 [SAR 1:1 DAR 20:11], 25 tbr, 25 tbn, 25 tbc
Stream #0:1: Audio: mp3 (U[0][0][0] / 0x0055), 48000 Hz, stereo, s16, 130 kb/s
screenshots
Anal Class torrent screenshot F89EB0902F6DF0A7F7C06B0851054D90EDD21DDF Anal Class torrent screenshot f89eb0902f6df0a7f7c06b0851054d90edd21ddf torrent Anal Class
Images are auto generated please report any inapropriate images
 

related search cloud

 anal